  0
SECTION
  2
HEADER
  9
$LIMMIN
 10
0.000000
 20
0.000000
  9
$LIMMAX
 10
21.030000
 20
15.800000
  9
$EXTMIN
 10
0.000000
 20
0.000000
  9
$EXTMAX
 10
21.030000
 20
15.800000
  9
$ANGBASE
 50
0.000000
  9
$ANGDIR
 70
0
  9
$INSUNITS
 70
1
  9
$DIMALT
 70
1
  9
$DIMLUNIT
 70
2
  9
$DIMASZ
 40
0.125000
  9
$DIMTXT
 40
0.200000
  9
$DIMRND
 40
0.001000
  9
$DIMEXE
 40
0.083333
  9
$DIMEXO
 40
0.083333
  9
$DIMAUNIT
 70
0
  9
$DIMADEC
 70
2
  9
$GRIDUNIT
 10
0.001000
 20
0.001000
  9
$PLIMMIN
 10
0.000000
 20
0.000000
  9
$PLIMMAX
 10
11.000000
 20
8.500000
  9
$PSVPSCALE
 40
0.500000
  0
ENDSEC
  0
SECTION
  2
TABLES
  0
TABLE
  2
LTYPE
 70
     1
  0
LTYPE
  2
CONTINUOUS
 70
    64
  3
Ausgez
 72
    65
 73
  0
 40
0.000000
  0
ENDTAB
  0
TABLE
  2
LAYER
 70
     1
  0
LAYER
  2
Clamp
 70
    64
 62
7
  6
CONTINUOUS
  0
LAYER
  2
Layout
 70
    64
 62
7
  6
CONTINUOUS
  0
LAYER
  2
Dimension
 70
    64
 62
7
  6
CONTINUOUS
  0
LAYER
  2
Plate
 70
    64
 62
221
  6
CONTINUOUS
  0
LAYER
  2
Bracket
 70
    64
 62
1
  6
CONTINUOUS
  0
LAYER
  2
HoldDown
 70
    64
 62
221
  6
CONTINUOUS
  0
LAYER
  2
Bracket Dimension
 70
    64
 62
7
  6
CONTINUOUS
  0
LAYER
  2
Text
 70
    64
 62
7
  6
CONTINUOUS
  0
ENDTAB
  0
ENDSEC
  0
SECTION
  2
BLOCKS
  0
ENDSEC
  0
SECTION
  2
ENTITIES
  0
CIRCLE
  8
Layout
  6
CONTINUOUS
 10
9.500000
 20
9.500000
 40
2.625000
 39
0
 62
7
  0
LINE
  8
Plate
  6
CONTINUOUS
 10
13.125000
 20
9.500000
 11
13.125000
 21
8.875000
 39
3
 62
221
  0
LINE
  8
Clamp
  6
CONTINUOUS
 10
5.625000
 20
12.125000
 11
5.625000
 21
5.625000
 39
3
 62
7
  0
LINE
  8
Clamp
  6
CONTINUOUS
 10
5.625000
 20
12.125000
 11
6.625000
 21
12.125000
 39
3
 62
7
  0
LINE
  8
Clamp
  6
CONTINUOUS
 10
12.375000
 20
12.125000
 11
13.125000
 21
12.125000
 39
3
 62
7
  0
LINE
  8
Clamp
  6
CONTINUOUS
 10
12.375000
 20
12.125000
 11
12.375000
 21
9.500000
 39
3
 62
7
  0
LINE
  8
Clamp
  6
CONTINUOUS
 10
6.625000
 20
12.125000
 11
6.625000
 21
9.500000
 39
3
 62
7
  0
ARC
  8
Clamp
  6
CONTINUOUS
 10
9.500000
 20
9.500000
 40
2.875000
 50
180.000000
 51
0.000000
 39
3
 62
7
  0
LINE
  8
Clamp
  6
CONTINUOUS
 10
13.125000
 20
12.125000
 11
13.125000
 21
5.625000
 39
3
 62
7
  0
LINE
  8
Clamp
  6
CONTINUOUS
 10
5.625000
 20
5.625000
 11
13.125000
 21
5.625000
 39
3
 62
7
  0
LINE
  8
Bracket
  6
CONTINUOUS
 10
16.125000
 20
8.875000
 11
16.125000
 21
7.875000
 39
3
 62
1
  0
LINE
  8
Bracket
  6
CONTINUOUS
 10
13.125000
 20
8.875000
 11
16.125000
 21
8.875000
 39
3
 62
1
  0
LINE
  8
Bracket
  6
CONTINUOUS
 10
13.125000
 20
8.875000
 11
13.125000
 21
5.625000
 39
3
 62
1
  0
LINE
  8
Bracket
  6
CONTINUOUS
 10
13.625000
 20
7.875000
 11
13.625000
 21
5.625000
 39
3
 62
1
  0
LINE
  8
Bracket
  6
CONTINUOUS
 10
13.125000
 20
5.625000
 11
13.625000
 21
5.625000
 39
3
 62
1
  0
LINE
  8
Bracket
  6
DASH
 10
13.125000
 20
7.500000
 11
13.625000
 21
7.500000
 39
3
 62
1
  0
LINE
  8
Bracket
  6
DASH
 10
13.125000
 20
7.250000
 11
13.625000
 21
7.250000
 39
3
 62
1
  0
LINE
  8
Bracket
  6
DASH
 10
13.125000
 20
6.250000
 11
13.625000
 21
6.250000
 39
3
 62
1
  0
LINE
  8
Bracket
  6
DASH
 10
13.125000
 20
6.000000
 11
13.625000
 21
6.000000
 39
3
 62
1
  0
LINE
  8
Bracket
  6
CONTINUOUS
 10
13.625000
 20
7.875000
 11
16.125000
 21
7.875000
 39
3
 62
1
  0
LINE
  8
Bracket
  6
CONTINUOUS
 10
15.580000
 20
8.450000
 11
15.670000
 21
8.450000
 39
3
 62
1
  0
LINE
  8
Bracket
  6
CONTINUOUS
 10
15.580000
 20
8.150000
 11
15.670000
 21
8.150000
 39
3
 62
1
  0
LINE
  8
Bracket
  6
CONTINUOUS
 10
15.527000
 20
8.000000
 11
15.723000
 21
8.000000
 39
3
 62
1
  0
LINE
  8
Bracket
  6
CONTINUOUS
 10
15.527000
 20
8.300000
 11
15.723000
 21
8.300000
 39
3
 62
1
  0
LINE
  8
Bracket
  6
CONTINUOUS
 10
14.080000
 20
8.450000
 11
14.170000
 21
8.450000
 39
3
 62
1
  0
LINE
  8
Bracket
  6
CONTINUOUS
 10
14.080000
 20
8.150000
 11
14.170000
 21
8.150000
 39
3
 62
1
  0
LINE
  8
Bracket
  6
CONTINUOUS
 10
14.027000
 20
8.000000
 11
14.223000
 21
8.000000
 39
3
 62
1
  0
LINE
  8
Bracket
  6
CONTINUOUS
 10
14.027000
 20
8.300000
 11
14.223000
 21
8.300000
 39
3
 62
1
  0
LINE
  8
Clamp
  6
DASH
 10
12.181580
 20
7.277000
 11
12.125000
 21
7.375000
 39
3
 62
7
  0
LINE
  8
Clamp
  6
DASH
 10
12.125000
 20
7.375000
 11
12.181580
 21
7.473000
 39
3
 62
7
  0
LINE
  8
Clamp
  6
DASH
 10
12.181580
 20
6.027000
 11
12.125000
 21
6.125000
 39
3
 62
7
  0
LINE
  8
Clamp
  6
DASH
 10
12.125000
 20
6.125000
 11
12.181580
 21
6.223000
 39
3
 62
7
  0
LINE
  8
Clamp
  6
CONTINUOUS
 10
12.250000
 20
7.420000
 11
12.250000
 21
7.330000
 39
3
 62
7
  0
LINE
  8
Clamp
  6
CONTINUOUS
 10
12.550000
 20
7.420000
 11
12.550000
 21
7.330000
 39
3
 62
7
  0
LINE
  8
Clamp
  6
CONTINUOUS
 10
12.700000
 20
7.473000
 11
12.700000
 21
7.277000
 39
3
 62
7
  0
LINE
  8
Clamp
  6
CONTINUOUS
 10
12.400000
 20
7.473000
 11
12.400000
 21
7.277000
 39
3
 62
7
  0
LINE
  8
Clamp
  6
DASH
 10
5.625000
 20
9.598000
 11
6.625000
 21
9.598000
 39
3
 62
7
  0
LINE
  8
Clamp
  6
DASH
 10
5.625000
 20
9.402000
 11
6.626671
 21
9.402000
 39
3
 62
7
  0
LINE
  8
Clamp
  6
DASH
 10
9.402000
 20
6.626671
 11
9.402000
 21
5.625000
 39
3
 62
7
  0
LINE
  8
Clamp
  6
DASH
 10
9.598000
 20
6.626671
 11
9.598000
 21
5.625000
 39
3
 62
7
  0
LINE
  8
Clamp
  6
DASH
 10
12.373329
 20
9.402000
 11
13.125000
 21
9.402000
 39
3
 62
7
  0
LINE
  8
Clamp
  6
DASH
 10
12.375000
 20
9.598000
 11
13.125000
 21
9.598000
 39
3
 62
7
  0
LINE
  8
Clamp
  6
CONTINUOUS
 10
12.550000
 20
9.545000
 11
12.550000
 21
9.455000
 39
3
 62
7
  0
LINE
  8
Clamp
  6
CONTINUOUS
 10
12.850000
 20
9.545000
 11
12.850000
 21
9.455000
 39
3
 62
7
  0
LINE
  8
Clamp
  6
CONTINUOUS
 10
13.000000
 20
9.598000
 11
13.000000
 21
9.402000
 39
3
 62
7
  0
LINE
  8
Clamp
  6
CONTINUOUS
 10
12.700000
 20
9.598000
 11
12.700000
 21
9.402000
 39
3
 62
7
  0
LINE
  8
Clamp
  6
CONTINUOUS
 10
5.750000
 20
9.545000
 11
5.750000
 21
9.455000
 39
3
 62
7
  0
LINE
  8
Clamp
  6
CONTINUOUS
 10
6.050000
 20
9.545000
 11
6.050000
 21
9.455000
 39
3
 62
7
  0
LINE
  8
Clamp
  6
CONTINUOUS
 10
6.350000
 20
9.545000
 11
6.350000
 21
9.455000
 39
3
 62
7
  0
LINE
  8
Clamp
  6
CONTINUOUS
 10
6.500000
 20
9.598000
 11
6.500000
 21
9.402000
 39
3
 62
7
  0
LINE
  8
Clamp
  6
CONTINUOUS
 10
6.200000
 20
9.598000
 11
6.200000
 21
9.402000
 39
3
 62
7
  0
LINE
  8
Clamp
  6
CONTINUOUS
 10
5.900000
 20
9.598000
 11
5.900000
 21
9.402000
 39
3
 62
7
  0
LINE
  8
Clamp
  6
CONTINUOUS
 10
9.545000
 20
6.500000
 11
9.455000
 21
6.500000
 39
3
 62
7
  0
LINE
  8
Clamp
  6
CONTINUOUS
 10
9.545000
 20
6.200000
 11
9.455000
 21
6.200000
 39
3
 62
7
  0
LINE
  8
Clamp
  6
CONTINUOUS
 10
9.545000
 20
5.900000
 11
9.455000
 21
5.900000
 39
3
 62
7
  0
LINE
  8
Clamp
  6
CONTINUOUS
 10
9.598000
 20
5.750000
 11
9.402000
 21
5.750000
 39
3
 62
7
  0
LINE
  8
Clamp
  6
CONTINUOUS
 10
9.598000
 20
6.050000
 11
9.402000
 21
6.050000
 39
3
 62
7
  0
LINE
  8
Clamp
  6
CONTINUOUS
 10
9.598000
 20
6.350000
 11
9.402000
 21
6.350000
 39
3
 62
7
  0
LINE
  8
HoldDown
  6
CONTINUOUS
 10
5.875000
 20
12.750000
 11
5.875000
 21
12.125000
 39
3
 62
221
  0
LINE
  8
HoldDown
  6
CONTINUOUS
 10
5.875000
 20
12.750000
 11
12.375000
 21
12.750000
 39
3
 62
221
  0
LINE
  8
HoldDown
  6
CONTINUOUS
 10
12.375000
 20
12.750000
 11
12.375000
 21
11.225000
 39
3
 62
221
  0
LINE
  8
HoldDown
  6
CONTINUOUS
 10
11.750000
 20
11.225000
 11
12.375000
 21
11.225000
 39
3
 62
221
  0
LINE
  8
HoldDown
  6
CONTINUOUS
 10
11.750000
 20
12.125000
 11
11.750000
 21
11.225000
 39
3
 62
221
  0
LINE
  8
HoldDown
  6
CONTINUOUS
 10
5.875000
 20
12.125000
 11
11.750000
 21
12.125000
 39
3
 62
221
  0
LINE
  8
Clamp
  6
DASH
 10
6.250000
 20
11.125000
 11
6.152000
 21
11.181580
 39
3
 62
7
  0
LINE
  8
Clamp
  6
DASH
 10
6.348000
 20
11.181580
 11
6.250000
 21
11.125000
 39
3
 62
7
  0
LINE
  8
Clamp
  6
DASH
 10
6.152000
 20
12.125000
 11
6.152000
 21
11.181580
 39
3
 62
7
  0
LINE
  8
Clamp
  6
DASH
 10
6.348000
 20
12.125000
 11
6.348000
 21
11.181580
 39
3
 62
7
  0
LINE
  8
Clamp
  6
CONTINUOUS
 10
6.295000
 20
12.000000
 11
6.205000
 21
12.000000
 39
3
 62
7
  0
LINE
  8
Clamp
  6
CONTINUOUS
 10
6.295000
 20
11.700000
 11
6.205000
 21
11.700000
 39
3
 62
7
  0
LINE
  8
Clamp
  6
CONTINUOUS
 10
6.295000
 20
11.400000
 11
6.205000
 21
11.400000
 39
3
 62
7
  0
LINE
  8
Clamp
  6
CONTINUOUS
 10
6.348000
 20
11.250000
 11
6.152000
 21
11.250000
 39
3
 62
7
  0
LINE
  8
Clamp
  6
CONTINUOUS
 10
6.348000
 20
11.550000
 11
6.152000
 21
11.550000
 39
3
 62
7
  0
LINE
  8
Clamp
  6
CONTINUOUS
 10
6.348000
 20
11.850000
 11
6.152000
 21
11.850000
 39
3
 62
7
  0
LINE
  8
Clamp
  6
DASH
 10
12.375000
 20
11.625250
 11
13.125000
 21
11.625250
 39
3
 62
7
  0
LINE
  8
Clamp
  6
DASH
 10
12.375000
 20
11.374750
 11
13.125000
 21
11.374750
 39
3
 62
7
  0
LINE
  8
Clamp
  6
CONTINUOUS
 10
12.250000
 20
6.170000
 11
12.250000
 21
6.080000
 39
3
 62
7
  0
LINE
  8
Clamp
  6
CONTINUOUS
 10
12.550000
 20
6.170000
 11
12.550000
 21
6.080000
 39
3
 62
7
  0
LINE
  8
Clamp
  6
CONTINUOUS
 10
12.700000
 20
6.223000
 11
12.700000
 21
6.027000
 39
3
 62
7
  0
LINE
  8
Clamp
  6
CONTINUOUS
 10
12.400000
 20
6.223000
 11
12.400000
 21
6.027000
 39
3
 62
7
  0
LINE
  8
Bracket
  6
DASH
 10
14.000000
 20
8.875000
 11
14.000000
 21
8.625000
 39
3
 62
1
  0
LINE
  8
Bracket
  6
DASH
 10
14.250000
 20
8.875000
 11
14.250000
 21
8.625000
 39
3
 62
1
  0
LINE
  8
Bracket
  6
DASH
 10
14.027000
 20
8.625000
 11
14.027000
 21
7.875000
 39
3
 62
1
  0
LINE
  8
Bracket
  6
DASH
 10
14.223000
 20
8.625000
 11
14.223000
 21
7.875000
 39
3
 62
1
  0
LINE
  8
Bracket
  6
DASH
 10
14.000000
 20
8.625000
 11
14.250000
 21
8.625000
 39
3
 62
1
  0
LINE
  8
Bracket
  6
DASH
 10
15.500000
 20
8.625000
 11
15.750000
 21
8.625000
 39
3
 62
1
  0
LINE
  8
Bracket
  6
DASH
 10
15.527000
 20
8.625000
 11
15.527000
 21
7.875000
 39
3
 62
1
  0
LINE
  8
Bracket
  6
DASH
 10
15.723000
 20
8.625000
 11
15.723000
 21
7.875000
 39
3
 62
1
  0
LINE
  8
Bracket
  6
DASH
 10
15.500000
 20
8.875000
 11
15.500000
 21
8.625000
 39
3
 62
1
  0
LINE
  8
Bracket
  6
DASH
 10
15.750000
 20
8.875000
 11
15.750000
 21
8.625000
 39
3
 62
1
  0
LINE
  8
Clamp
  6
DASH
 10
12.875000
 20
7.250000
 11
13.125000
 21
7.250000
 39
3
 62
7
  0
LINE
  8
Clamp
  6
DASH
 10
12.875000
 20
7.500000
 11
12.875000
 21
7.250000
 39
3
 62
7
  0
LINE
  8
Clamp
  6
DASH
 10
12.875000
 20
7.500000
 11
13.125000
 21
7.500000
 39
3
 62
7
  0
LINE
  8
Clamp
  6
DASH
 10
12.875000
 20
6.250000
 11
13.125000
 21
6.250000
 39
3
 62
7
  0
LINE
  8
Clamp
  6
DASH
 10
12.875000
 20
6.250000
 11
12.875000
 21
6.000000
 39
3
 62
7
  0
LINE
  8
Clamp
  6
DASH
 10
12.875000
 20
6.000000
 11
13.125000
 21
6.000000
 39
3
 62
7
  0
LINE
  8
Clamp
  6
DASH
 10
12.181580
 20
7.473000
 11
12.875000
 21
7.473000
 39
3
 62
7
  0
LINE
  8
Clamp
  6
DASH
 10
12.181580
 20
7.277000
 11
12.875000
 21
7.277000
 39
3
 62
7
  0
LINE
  8
Clamp
  6
DASH
 10
12.181580
 20
6.223000
 11
12.875000
 21
6.223000
 39
3
 62
7
  0
LINE
  8
Clamp
  6
DASH
 10
12.181580
 20
6.027000
 11
12.875000
 21
6.027000
 39
3
 62
7
  0
LINE
  8
Clamp
  6
CONTINUOUS
 10
5.625000
 20
14.125000
 11
5.625000
 21
13.500000
 39
3
 62
7
  0
LINE
  8
Clamp
  6
CONTINUOUS
 10
5.625000
 20
14.125000
 11
13.125000
 21
14.125000
 39
3
 62
7
  0
LINE
  8
Clamp
  6
CONTINUOUS
 10
5.625000
 20
13.500000
 11
13.125000
 21
13.500000
 39
3
 62
7
  0
LINE
  8
Clamp
  6
CONTINUOUS
 10
13.125000
 20
14.125000
 11
13.125000
 21
13.500000
 39
3
 62
7
  0
LINE
  8
Clamp
  6
CONTINUOUS
 10
15.500000
 20
12.125000
 11
16.125000
 21
12.125000
 39
3
 62
7
  0
LINE
  8
Clamp
  6
CONTINUOUS
 10
16.125000
 20
12.125000
 11
16.125000
 21
5.625000
 39
3
 62
7
  0
LINE
  8
Clamp
  6
CONTINUOUS
 10
15.500000
 20
12.125000
 11
15.500000
 21
5.625000
 39
3
 62
7
  0
LINE
  8
Clamp
  6
CONTINUOUS
 10
15.500000
 20
5.625000
 11
16.125000
 21
5.625000
 39
3
 62
7
  0
LINE
  8
Clamp
  6
CONTINUOUS
 10
3.375000
 20
12.125000
 11
4.000000
 21
12.125000
 39
3
 62
7
  0
LINE
  8
Clamp
  6
CONTINUOUS
 10
4.000000
 20
12.125000
 11
4.000000
 21
5.625000
 39
3
 62
7
  0
LINE
  8
Clamp
  6
CONTINUOUS
 10
3.375000
 20
5.625000
 11
4.000000
 21
5.625000
 39
3
 62
7
  0
LINE
  8
Clamp
  6
CONTINUOUS
 10
3.375000
 20
12.125000
 11
3.375000
 21
5.625000
 39
3
 62
7
  0
LINE
  8
Clamp
  6
CONTINUOUS
 10
5.625000
 20
4.000000
 11
5.625000
 21
3.375000
 39
3
 62
7
  0
LINE
  8
Clamp
  6
CONTINUOUS
 10
5.625000
 20
3.375000
 11
13.125000
 21
3.375000
 39
3
 62
7
  0
LINE
  8
Clamp
  6
CONTINUOUS
 10
13.125000
 20
4.000000
 11
13.125000
 21
3.375000
 39
3
 62
7
  0
LINE
  8
Clamp
  6
CONTINUOUS
 10
5.625000
 20
4.000000
 11
13.125000
 21
4.000000
 39
3
 62
7
  0
LINE
  8
Layout
  6
CONTINUOUS
 10
3.000000
 20
14.500000
 11
3.000000
 21
3.000000
 39
0
 62
7
  0
LINE
  8
Layout
  6
CONTINUOUS
 10
3.000000
 20
14.500000
 11
16.500000
 21
14.500000
 39
0
 62
7
  0
LINE
  8
Layout
  6
CONTINUOUS
 10
16.500000
 20
14.500000
 11
16.500000
 21
3.000000
 39
0
 62
7
  0
LINE
  8
Layout
  6
CONTINUOUS
 10
3.000000
 20
3.000000
 11
16.500000
 21
3.000000
 39
0
 62
7
  0
CIRCLE
  8
Clamp
  6
CONTINUOUS
 10
9.500000
 20
13.812500
 40
0.098000
 39
3
 62
7
  0
CIRCLE
  8
Clamp
  6
CONTINUOUS
 10
9.500000
 20
3.687500
 40
0.098000
 39
3
 62
7
  0
CIRCLE
  8
Clamp
  6
CONTINUOUS
 10
3.687500
 20
9.500000
 40
0.098000
 39
3
 62
7
  0
CIRCLE
  8
Clamp
  6
CONTINUOUS
 10
15.812500
 20
9.500000
 40
0.098000
 39
3
 62
7
  0
CIRCLE
  8
Clamp
  6
CONTINUOUS
 10
15.812500
 20
7.375000
 40
0.098000
 39
3
 62
7
  0
CIRCLE
  8
Clamp
  6
CONTINUOUS
 10
15.812500
 20
6.125000
 40
0.098000
 39
3
 62
7
  0
CIRCLE
  8
Clamp
  6
CONTINUOUS
 10
6.250000
 20
13.812500
 40
0.098000
 39
3
 62
7
  0
LINE
  8
Clamp
  6
CONTINUOUS
 10
12.375000
 20
14.125000
 11
12.375000
 21
13.500000
 39
3
 62
7
  0
LINE
  8
Clamp
  6
CONTINUOUS
 10
6.625000
 20
14.125000
 11
6.625000
 21
13.500000
 39
3
 62
7
  0
LINE
  8
Dimension
  6
DASHDOT
 10
12.375000
 20
11.500000
 11
16.500000
 21
11.500000
 39
1
 62
7
  0
CIRCLE
  8
Clamp
  6
CONTINUOUS
 10
15.812500
 20
11.500000
 40
0.125250
 39
3
 62
7
  0
LINE
  8
Clamp
  6
DASH
 10
12.375000
 20
13.687250
 11
13.125000
 21
13.687250
 39
3
 62
7
  0
LINE
  8
Clamp
  6
DASH
 10
12.375000
 20
13.937750
 11
13.125000
 21
13.937750
 39
3
 62
7
  0
CIRCLE
  8
Clamp
  6
CONTINUOUS
 10
15.812500
 20
7.375000
 40
0.125000
 39
3
 62
7
  0
CIRCLE
  8
Clamp
  6
CONTINUOUS
 10
15.812500
 20
6.125000
 40
0.125000
 39
3
 62
7
  0
LINE
  8
Dimension
  6
DASHDOT
 10
11.900000
 20
7.375000
 11
16.500000
 21
7.375000
 39
1
 62
7
  0
LINE
  8
Dimension
  6
DASHDOT
 10
11.900000
 20
6.125000
 11
16.500000
 21
6.125000
 39
1
 62
7
  0
DIMENSION
  8
Dimension
  6
CONTINUOUS
  1
;;
 10
12.875000
 20
4.500000
 13
12.875000
 23
6.000000
 14
13.125000
 24
5.625000
 50
0.000000
 70
0
 39
1
 62
7
  0
DIMENSION
  8
Dimension
  6
CONTINUOUS
  1
;;
 10
13.125000
 20
6.500000
 13
13.125000
 23
6.000000
 14
12.125000
 24
6.125000
 50
0.000000
 70
0
 39
1
 62
7
  0
DIMENSION
  8
Dimension
  6
CONTINUOUS
  1
ø;;
 10
14.100000
 20
6.000000
 13
13.125000
 23
6.000000
 14
13.125000
 24
6.250000
 50
90.000000
 70
0
 39
1
 62
7
  0
DIMENSION
  8
Dimension
  6
CONTINUOUS
  1
ø;;
 10
15.100000
 20
6.027000
 13
15.812500
 23
6.027000
 14
15.812500
 24
6.223000
 70
1
 39
1
 62
7
  0
DIMENSION
  8
Dimension
  6
CONTINUOUS
  1
;;
 10
17.500000
 20
6.125000
 13
15.937500
 23
6.125000
 14
15.937500
 24
7.375000
 50
90.000000
 70
0
 39
1
 62
7
  0
DIMENSION
  8
Dimension
  6
CONTINUOUS
  1
;;
 10
17.500000
 20
7.375000
 13
15.937500
 23
7.375000
 14
15.910500
 24
9.500000
 50
90.000000
 70
0
 39
1
 62
7
  0
DIMENSION
  8
Dimension
  6
CONTINUOUS
  1
;;
 10
17.500000
 20
9.500000
 13
15.910500
 23
9.500000
 14
15.937750
 24
11.500000
 50
90.000000
 70
0
 39
1
 62
7
  0
DIMENSION
  8
Dimension
  6
CONTINUOUS
  1
ø;;
 10
14.100000
 20
7.500000
 13
13.125000
 23
7.500000
 14
13.125000
 24
7.250000
 50
90.000000
 70
0
 39
1
 62
7
  0
DIMENSION
  8
Dimension
  6
CONTINUOUS
  1
ø;;
 10
15.100000
 20
7.473000
 13
15.812500
 23
7.473000
 14
15.812500
 24
7.277000
 70
1
 39
1
 62
7
  0
DIMENSION
  8
Dimension
  6
CONTINUOUS
  1
ø;;
 10
14.300000
 20
9.598000
 13
15.812500
 23
9.598000
 14
15.812500
 24
9.402000
 70
1
 39
1
 62
7
  0
DIMENSION
  8
Dimension
  6
CONTINUOUS
  1
ø0.25;-.000;+.001
 10
15.937750
 20
12.500000
 13
15.937750
 23
11.500000
 14
15.687250
 24
11.500000
 70
1
 39
1
 62
7
  0
DIMENSION
  8
Dimension
  6
CONTINUOUS
  1
ø;;
 10
6.152000
 20
12.500000
 13
6.152000
 23
13.812500
 14
6.348000
 24
13.812500
 70
1
 39
1
 62
7
  0
DIMENSION
  8
Dimension
  6
CONTINUOUS
  1
;;
 10
17.500000
 20
5.625000
 13
16.125000
 23
5.625000
 14
15.937500
 24
6.125000
 50
90.000000
 70
0
 39
1
 62
7
  0
DIMENSION
  8
Dimension
  6
CONTINUOUS
  1
;;
 10
9.500000
 20
9.500000
 15
8.500000
 25
8.000000
 40
2.875000
 70
4
 39
1
 62
7
  0
DIMENSION
  8
Dimension
  6
CONTINUOUS
  1
;;
 10
5.625000
 20
15.000000
 13
5.625000
 23
14.125000
 14
6.625000
 24
14.125000
 50
0.000000
 70
0
 39
1
 62
7
  0
DIMENSION
  8
Dimension
  6
CONTINUOUS
  1
;;
 10
13.125000
 20
15.000000
 13
13.125000
 23
14.125000
 14
12.375000
 24
14.125000
 50
0.000000
 70
0
 39
1
 62
7
  0
DIMENSION
  8
Dimension
  6
CONTINUOUS
  1
;;
 10
6.625000
 20
15.000000
 13
6.625000
 23
14.125000
 14
12.375000
 24
14.125000
 50
0.000000
 70
0
 39
1
 62
7
  0
LINE
  8
Plate
  6
CONTINUOUS
 10
20.125000
 20
9.500000
 11
20.125000
 21
8.875000
 39
3
 62
221
  0
LINE
  8
Plate
  6
CONTINUOUS
 10
13.125000
 20
9.500000
 11
20.125000
 21
9.500000
 39
3
 62
221
  0
LINE
  8
Plate
  6
CONTINUOUS
 10
13.125000
 20
8.875000
 11
20.125000
 21
8.875000
 39
3
 62
221
  0
TEXT
  8
Text
  6
CONTINUOUS
 10
13.500000
 20
2.500000
 40
0.300000
 50
0.000000
 72
0
  7
romand#0.030000#0.180000
  1
Two holes have been counter bored 1/4 to make
 39
1
 62
7
  0
LINE
  8
Dimension
  6
DASHDOT
 10
5.300000
 20
3.687500
 11
13.500000
 21
3.687500
 39
1
 62
7
  0
LINE
  8
Dimension
  6
DASHDOT
 10
15.812500
 20
12.500000
 11
15.812500
 21
5.100000
 39
1
 62
7
  0
LINE
  8
Dimension
  6
DASHDOT
 10
5.500000
 20
13.812500
 11
13.500000
 21
13.812500
 39
1
 62
7
  0
LINE
  8
Dimension
  6
DASHDOT
 10
3.500000
 20
9.500000
 11
16.500000
 21
9.500000
 39
1
 62
7
  0
DIMENSION
  8
Dimension
  6
CONTINUOUS
  1
;;
 10
5.000000
 20
11.125000
 13
6.250000
 23
11.125000
 14
6.152000
 24
12.125000
 50
90.000000
 70
0
 39
1
 62
7
  0
LINE
  8
Bracket Dimension
  6
DASHDOT
 10
13.125000
 20
8.375000
 11
18.446515
 21
8.375000
 39
1
 62
7
  0
LINE
  8
Bracket Dimension
  6
DASHDOT
 10
14.125000
 20
12.125000
 11
14.125000
 21
5.625000
 39
1
 62
7
  0
LINE
  8
Bracket Dimension
  6
DASHDOT
 10
15.625000
 20
12.125000
 11
15.625000
 21
5.625000
 39
1
 62
7
  0
CIRCLE
  8
Clamp
  6
CONTINUOUS
 10
8.250000
 20
6.375000
 40
0.098000
 39
3
 62
7
  0
CIRCLE
  8
Clamp
  6
CONTINUOUS
 10
9.000000
 20
6.375000
 40
0.098000
 39
3
 62
7
  0
CIRCLE
  8
Clamp
  6
CONTINUOUS
 10
10.000000
 20
6.375000
 40
0.098000
 39
3
 62
7
  0
CIRCLE
  8
Clamp
  6
CONTINUOUS
 10
10.750000
 20
6.375000
 40
0.098000
 39
3
 62
7
  0
LINE
  8
Clamp
  6
DASH
 10
3.375000
 20
10.848000
 11
4.000000
 21
10.848000
 39
3
 62
7
  0
LINE
  8
Clamp
  6
DASH
 10
3.375000
 20
10.652000
 11
4.000000
 21
10.652000
 39
3
 62
7
  0
LINE
  8
Clamp
  6
DASH
 10
3.375000
 20
10.098000
 11
4.000000
 21
10.098000
 39
3
 62
7
  0
LINE
  8
Clamp
  6
DASH
 10
3.375000
 20
9.902000
 11
4.000000
 21
9.902000
 39
3
 62
7
  0
LINE
  8
Clamp
  6
DASH
 10
3.375000
 20
8.902000
 11
4.000000
 21
8.902000
 39
3
 62
7
  0
LINE
  8
Clamp
  6
DASH
 10
3.375000
 20
9.098000
 11
4.000000
 21
9.098000
 39
3
 62
7
  0
LINE
  8
Clamp
  6
DASH
 10
3.375000
 20
8.152000
 11
4.000000
 21
8.152000
 39
3
 62
7
  0
LINE
  8
Clamp
  6
DASH
 10
3.375000
 20
8.348000
 11
4.000000
 21
8.348000
 39
3
 62
7
  0
LINE
  8
Clamp
  6
DASH
 10
8.152000
 20
4.000000
 11
8.152000
 21
3.375000
 39
3
 62
7
  0
LINE
  8
Clamp
  6
DASH
 10
8.348000
 20
4.000000
 11
8.348000
 21
3.375000
 39
3
 62
7
  0
LINE
  8
Clamp
  6
DASH
 10
8.902000
 20
4.000000
 11
8.902000
 21
3.375000
 39
3
 62
7
  0
LINE
  8
Clamp
  6
DASH
 10
9.098000
 20
4.000000
 11
9.098000
 21
3.375000
 39
3
 62
7
  0
LINE
  8
Clamp
  6
DASH
 10
9.902000
 20
4.000000
 11
9.902000
 21
3.375000
 39
3
 62
7
  0
LINE
  8
Clamp
  6
DASH
 10
10.098000
 20
4.000000
 11
10.098000
 21
3.375000
 39
3
 62
7
  0
LINE
  8
Clamp
  6
DASH
 10
10.652000
 20
4.000000
 11
10.652000
 21
3.375000
 39
3
 62
7
  0
LINE
  8
Clamp
  6
DASH
 10
10.848000
 20
4.000000
 11
10.848000
 21
3.375000
 39
3
 62
7
  0
LINE
  8
Dimension
  6
DASHDOT
 10
10.750000
 20
6.550000
 11
10.750000
 21
3.200000
 39
0
 62
7
  0
LINE
  8
Dimension
  6
DASHDOT
 10
10.000000
 20
6.550000
 11
10.000000
 21
3.200000
 39
0
 62
7
  0
LINE
  8
Dimension
  6
DASHDOT
 10
9.000000
 20
6.550000
 11
9.000000
 21
3.200000
 39
0
 62
7
  0
LINE
  8
Dimension
  6
DASHDOT
 10
8.250000
 20
6.550000
 11
8.250000
 21
3.200000
 39
0
 62
7
  0
LINE
  8
Dimension
  6
DASHDOT
 10
9.500000
 20
14.000000
 11
9.500000
 21
3.500000
 39
1
 62
7
  0
DIMENSION
  8
Dimension
  6
CONTINUOUS
  1
;;
 10
4.000000
 20
4.500000
 13
4.000000
 23
5.625000
 14
3.375000
 24
5.625000
 50
0.000000
 70
0
 39
0
 62
7
  0
DIMENSION
  8
Dimension
  6
CONTINUOUS
  1
ø;;
 10
5.000000
 20
8.152000
 13
4.000000
 23
8.152000
 14
4.000000
 24
8.348000
 50
90.000000
 70
0
 39
0
 62
7
  0
DIMENSION
  8
Dimension
  6
CONTINUOUS
  1
ø;;
 10
7.500000
 20
9.598000
 13
6.625000
 23
9.598000
 14
6.626671
 24
9.402000
 50
90.000000
 70
0
 39
0
 62
7
  0
DIMENSION
  8
Dimension
  6
CONTINUOUS
  1
;;
 10
3.000000
 20
8.250000
 13
3.375000
 23
8.250000
 14
3.375000
 24
9.000000
 50
90.000000
 70
0
 39
0
 62
7
  0
DIMENSION
  8
Dimension
  6
CONTINUOUS
  1
;;
 10
3.000000
 20
9.000000
 13
3.375000
 23
9.000000
 14
3.375000
 24
10.000000
 50
90.000000
 70
0
 39
0
 62
7
  0
DIMENSION
  8
Dimension
  6
CONTINUOUS
  1
;;
 10
3.000000
 20
10.750000
 13
3.375000
 23
10.750000
 14
3.375000
 24
10.000000
 50
90.000000
 70
0
 39
0
 62
7
  0
DIMENSION
  8
Dimension
  6
CONTINUOUS
  1
;;
 10
1.500000
 20
5.625000
 13
3.375000
 23
5.625000
 14
3.375000
 24
8.250000
 50
90.000000
 70
0
 39
0
 62
7
  0
DIMENSION
  8
Dimension
  6
CONTINUOUS
  1
;;
 10
1.500000
 20
8.250000
 13
3.375000
 23
8.250000
 14
3.375000
 24
12.125000
 50
90.000000
 70
0
 39
0
 62
7
  0
CIRCLE
  8
Clamp
  6
CONTINUOUS
 10
6.375000
 20
10.750000
 40
0.098000
 39
3
 62
7
  0
CIRCLE
  8
Clamp
  6
CONTINUOUS
 10
6.375000
 20
10.000000
 40
0.098000
 39
3
 62
7
  0
CIRCLE
  8
Clamp
  6
CONTINUOUS
 10
6.375000
 20
9.000000
 40
0.098000
 39
3
 62
7
  0
CIRCLE
  8
Clamp
  6
CONTINUOUS
 10
6.375000
 20
8.250000
 40
0.098000
 39
3
 62
7
  0
LINE
  8
Dimension
  6
DASHDOT
 10
3.200000
 20
8.250000
 11
6.550000
 21
8.250000
 39
0
 62
7
  0
LINE
  8
Dimension
  6
DASHDOT
 10
3.200000
 20
9.000000
 11
6.550000
 21
9.000000
 39
0
 62
7
  0
LINE
  8
Dimension
  6
DASHDOT
 10
3.200000
 20
10.000000
 11
6.550000
 21
10.000000
 39
0
 62
7
  0
LINE
  8
Dimension
  6
DASHDOT
 10
3.200000
 20
10.750000
 11
6.550000
 21
10.750000
 39
0
 62
7
  0
DIMENSION
  8
Dimension
  6
CONTINUOUS
  1
;;
 10
6.375000
 20
6.800000
 13
6.375000
 23
8.050000
 14
5.625000
 24
5.625000
 50
0.000000
 70
0
 39
0
 62
7
  0
DIMENSION
  8
Dimension
  6
CONTINUOUS
  1
;;
 10
8.250000
 20
2.500000
 13
8.250000
 23
3.375000
 14
9.000000
 24
3.375000
 50
0.000000
 70
0
 39
0
 62
7
  0
DIMENSION
  8
Dimension
  6
CONTINUOUS
  1
;;
 10
9.000000
 20
2.500000
 13
9.000000
 23
3.375000
 14
10.000000
 24
3.375000
 50
0.000000
 70
0
 39
0
 62
7
  0
DIMENSION
  8
Dimension
  6
CONTINUOUS
  1
;;
 10
10.750000
 20
2.500000
 13
10.750000
 23
3.375000
 14
10.000000
 24
3.375000
 50
0.000000
 70
0
 39
0
 62
7
  0
DIMENSION
  8
Dimension
  6
CONTINUOUS
  1
;;
 10
5.625000
 20
1.500000
 13
5.625000
 23
3.375000
 14
8.250000
 24
3.375000
 50
0.000000
 70
0
 39
0
 62
7
  0
DIMENSION
  8
Dimension
  6
CONTINUOUS
  1
;;
 10
8.250000
 20
1.500000
 13
8.250000
 23
3.375000
 14
13.125000
 24
3.375000
 50
0.000000
 70
0
 39
0
 62
7
  0
DIMENSION
  8
Dimension
  6
CONTINUOUS
  1
;;
 10
8.152000
 20
4.500000
 13
8.152000
 23
4.000000
 14
8.348000
 24
4.000000
 50
0.000000
 70
0
 39
0
 62
7
  0
DIMENSION
  8
Dimension
  6
CONTINUOUS
  1
;;
 10
9.598000
 20
7.500000
 13
9.598000
 23
6.626671
 14
9.402000
 24
6.626671
 50
0.000000
 70
0
 39
0
 62
7
  0
DIMENSION
  8
Dimension
  6
CONTINUOUS
  1
;;
 10
6.750000
 20
5.625000
 13
5.625000
 23
5.625000
 14
8.050000
 24
6.375000
 50
90.000000
 70
0
 39
0
 62
7
  0
TEXT
  8
Text
  6
CONTINUOUS
 10
14.500000
 20
15.500000
 40
0.300000
 50
0.000000
 72
0
  7
Courier#0.030000#0.180000
  1
PSAS <www.psas.pdx.edu>
 39
1
 62
7
  0
TEXT
  8
Text
  6
CONTINUOUS
 10
14.500000
 20
15.080000
 40
0.300000
 50
0.000000
 72
0
  7
Courier#0.030000#0.180000
  1
Fin Jig Clamp
 39
1
 62
7
  0
TEXT
  8
Text
  6
CONTINUOUS
 10
14.500000
 20
14.500000
 40
0.300000
 50
0.000000
 72
0
  7
Courier#0.030000#0.180000
  1
v1.1  3/03/03
 39
1
 62
7
  0
TEXT
  8
Text
  6
CONTINUOUS
 10
14.500000
 20
14.000000
 40
0.300000
 50
0.000000
 72
0
  7
Courier#0.030000#0.180000
  1
Dimensions in inches
 39
1
 62
7
  0
TEXT
  8
Text
  6
CONTINUOUS
 10
13.500000
 20
2.080000
 40
0.300000
 50
0.000000
 72
0
  7
romand#0.030000#0.180000
  1
them better locating holes. This is probably 
 39
1
 62
7
  0
TEXT
  8
Text
  6
CONTINUOUS
 10
13.500000
 20
1.660000
 40
0.300000
 50
0.000000
 72
0
  7
romand#0.030000#0.180000
  1
unnecessary.
 39
1
 62
7
  0
TEXT
  8
Text
  6
CONTINUOUS
 10
15.300000
 20
4.000000
 40
0.300000
 50
0.000000
 72
0
  7
romand#0.030000#0.180000
  1
Notes:
 39
1
 62
7
  0
TEXT
  8
Text
  6
CONTINUOUS
 10
15.300000
 20
3.580000
 40
0.300000
 50
0.000000
 72
0
  7
romand#0.030000#0.180000
  1
Material Aluminum 6061-T6 or similar
 39
1
 62
7
  0
TEXT
  8
Text
  6
CONTINUOUS
 10
15.300000
 20
3.160000
 40
0.300000
 50
0.000000
 72
0
  7
romand#0.030000#0.180000
  1
0.196 holes thread 1/4-20
 39
1
 62
7
  0
LINE
  8
Dimension
  6
DASHDOT
 10
3.687500
 20
12.500000
 11
3.687500
 21
5.400000
 39
1
 62
7
  0
LINE
  8
Dimension
  6
DASHDOT
 10
6.375000
 20
11.000000
 11
6.375000
 21
8.050000
 39
0
 62
7
  0
LINE
  8
Dimension
  6
DASHDOT
 10
6.250000
 20
14.000000
 11
6.250000
 21
11.000000
 39
1
 62
7
  0
LINE
  8
Dimension
  6
DASHDOT
 10
8.050000
 20
6.375000
 11
11.000000
 21
6.375000
 39
0
 62
7
  0
DIMENSION
  8
Dimension
  6
CONTINUOUS
  1
;;
 10
18.500000
 20
5.625000
 13
16.125000
 23
5.625000
 14
16.125000
 24
12.125000
 50
90.000000
 70
0
 39
0
 62
7
  0
ENDSEC
  0
EOF
