999
dxflib 2.2.0.0
  0
SECTION
  2
HEADER
  9
$ACADVER
  1
AC1015
  9
$HANDSEED
  5
FFFF
  9
$SPLINESEGS
 70
8
  9
$DIMEXE
 40
0.05
  9
$DIMLUNIT
 70
2
  9
$GRIDMODE
 70
0
  9
$INSUNITS
 70
1
  9
$DIMADEC
 70
2
  9
$DIMASZ
 40
0.1
  9
$DIMGAP
 40
0.025
  9
$DIMTXT
 40
0.1
  9
$GRIDUNIT
 10
0.0
 20
0.0
  9
$DIMEXO
 40
0.025
  9
$LUPREC
 70
4
  9
$DIMAUNIT
 70
0
  9
$AUPREC
 70
2
  9
$PLIMMIN
 10
0.0
 20
0.0
  9
$LUNITS
 70
2
  9
$PLIMMAX
 10
8.5
 20
11.0
  9
$DIMSTYLE
  2
Standard
  9
$AUNITS
 70
0
  9
$CLAYER
  8
Notes
  0
ENDSEC
  0
SECTION
  2
TABLES
  0
TABLE
  2
VPORT
  5
8
100
AcDbSymbolTable
 70
1
  0
VPORT
  5
30
100
AcDbSymbolTableRecord
100
AcDbViewportTableRecord
  2
*Active
 70
0
 10
0.0
 20
0.0
 11
1.0
 21
1.0
 12
286.3055555555554861
 22
148.5
 13
0.0
 23
0.0
 14
10.0
 24
10.0
 15
10.0
 25
10.0
 16
0.0
 26
0.0
 36
1.0
 17
0.0
 27
0.0
 37
0.0
 40
297.0
 41
1.92798353909465
 42
50.0
 43
0.0
 44
0.0
 50
0.0
 51
0.0
 71
0
 72
100
 73
1
 74
3
 75
1
 76
1
 77
0
 78
0
281
0
 65
1
110
0.0
120
0.0
130
0.0
111
1.0
121
0.0
131
0.0
112
0.0
122
1.0
132
0.0
 79
0
146
0.0
  0
ENDTAB
  0
TABLE
  2
LTYPE
  5
5
100
AcDbSymbolTable
 70
21
  0
LTYPE
  5
14
100
AcDbSymbolTableRecord
100
AcDbLinetypeTableRecord
  2
ByBlock
 70
0
  3

 72
65
 73
0
 40
0.0
  0
LTYPE
  5
15
100
AcDbSymbolTableRecord
100
AcDbLinetypeTableRecord
  2
ByLayer
 70
0
  3

 72
65
 73
0
 40
0.0
  0
LTYPE
  5
16
100
AcDbSymbolTableRecord
100
AcDbLinetypeTableRecord
  2
CONTINUOUS
 70
0
  3
Solid line
 72
65
 73
0
 40
0.0
  0
LTYPE
  5
31
100
AcDbSymbolTableRecord
100
AcDbLinetypeTableRecord
  2
DOT
 70
0
  3
Dot . . . . . . . . . . . . . . . . . . . . . .
 72
65
 73
2
 40
6.3499999999999996
 49
0.0
 74
0
 49
-6.3499999999999996
 74
0
  0
LTYPE
  5
32
100
AcDbSymbolTableRecord
100
AcDbLinetypeTableRecord
  2
DOT2
 70
0
  3
Dot (.5x) .....................................
 72
65
 73
2
 40
3.1749999999999998
 49
0.0
 74
0
 49
-3.1749999999999998
 74
0
  0
LTYPE
  5
33
100
AcDbSymbolTableRecord
100
AcDbLinetypeTableRecord
  2
DOTX2
 70
0
  3
Dot (2x) .  .  .  .  .  .  .  .  .  .  .  .  .
 72
65
 73
2
 40
12.6999999999999993
 49
0.0
 74
0
 49
-12.6999999999999993
 74
0
  0
LTYPE
  5
34
100
AcDbSymbolTableRecord
100
AcDbLinetypeTableRecord
  2
DASHED
 70
0
  3
Dashed __ __ __ __ __ __ __ __ __ __ __ __ __ _
 72
65
 73
2
 40
19.0500000000000007
 49
12.6999999999999993
 74
0
 49
-6.3499999999999996
 74
0
  0
LTYPE
  5
35
100
AcDbSymbolTableRecord
100
AcDbLinetypeTableRecord
  2
DASHED2
 70
0
  3
Dashed (.5x) _ _ _ _ _ _ _ _ _ _ _ _ _ _ _ _ _
 72
65
 73
2
 40
9.5250000000000004
 49
6.3499999999999996
 74
0
 49
-3.1749999999999998
 74
0
  0
LTYPE
  5
36
100
AcDbSymbolTableRecord
100
AcDbLinetypeTableRecord
  2
DASHEDX2
 70
0
  3
Dashed (2x) ____  ____  ____  ____  ____  ___
 72
65
 73
2
 40
38.1000000000000014
 49
25.3999999999999986
 74
0
 49
-12.6999999999999993
 74
0
  0
LTYPE
  5
37
100
AcDbSymbolTableRecord
100
AcDbLinetypeTableRecord
  2
DASHDOT
 70
0
  3
Dash dot __ . __ . __ . __ . __ . __ . __ . __
 72
65
 73
4
 40
25.3999999999999986
 49
12.6999999999999993
 74
0
 49
-6.3499999999999996
 74
0
 49
0.0
 74
0
 49
-6.3499999999999996
 74
0
  0
LTYPE
  5
38
100
AcDbSymbolTableRecord
100
AcDbLinetypeTableRecord
  2
DASHDOT2
 70
0
  3
Dash dot (.5x) _._._._._._._._._._._._._._._.
 72
65
 73
4
 40
12.6999999999999993
 49
6.3499999999999996
 74
0
 49
-3.1749999999999998
 74
0
 49
0.0
 74
0
 49
-3.1749999999999998
 74
0
  0
LTYPE
  5
39
100
AcDbSymbolTableRecord
100
AcDbLinetypeTableRecord
  2
DASHDOTX2
 70
0
  3
Dash dot (2x) ____  .  ____  .  ____  .  ___
 72
65
 73
4
 40
50.7999999999999972
 49
25.3999999999999986
 74
0
 49
-12.6999999999999993
 74
0
 49
0.0
 74
0
 49
-12.6999999999999993
 74
0
  0
LTYPE
  5
3A
100
AcDbSymbolTableRecord
100
AcDbLinetypeTableRecord
  2
DIVIDE
 70
0
  3
Divide ____ . . ____ . . ____ . . ____ . . ____
 72
65
 73
6
 40
31.75
 49
12.6999999999999993
 74
0
 49
-6.3499999999999996
 74
0
 49
0.0
 74
0
 49
-6.3499999999999996
 74
0
 49
0.0
 74
0
 49
-6.3499999999999996
 74
0
  0
LTYPE
  5
3B
100
AcDbSymbolTableRecord
100
AcDbLinetypeTableRecord
  2
DIVIDE2
 70
0
  3
Divide (.5x) __..__..__..__..__..__..__..__.._
 72
65
 73
6
 40
15.875
 49
6.3499999999999996
 74
0
 49
-3.1749999999999998
 74
0
 49
0.0
 74
0
 49
-3.1749999999999998
 74
0
 49
0.0
 74
0
 49
-3.1749999999999998
 74
0
  0
LTYPE
  5
3C
100
AcDbSymbolTableRecord
100
AcDbLinetypeTableRecord
  2
DIVIDEX2
 70
0
  3
Divide (2x) ________  .  .  ________  .  .  _
 72
65
 73
6
 40
63.5
 49
25.3999999999999986
 74
0
 49
-12.6999999999999993
 74
0
 49
0.0
 74
0
 49
-12.6999999999999993
 74
0
 49
0.0
 74
0
 49
-12.6999999999999993
 74
0
  0
LTYPE
  5
3D
100
AcDbSymbolTableRecord
100
AcDbLinetypeTableRecord
  2
CENTER
 70
0
  3
Center ____ _ ____ _ ____ _ ____ _ ____ _ ____
 72
65
 73
4
 40
50.7999999999999972
 49
31.75
 74
0
 49
-6.3499999999999996
 74
0
 49
6.3499999999999996
 74
0
 49
-6.3499999999999996
 74
0
  0
LTYPE
  5
3E
100
AcDbSymbolTableRecord
100
AcDbLinetypeTableRecord
  2
CENTER2
 70
0
  3
Center (.5x) ___ _ ___ _ ___ _ ___ _ ___ _ ___
 72
65
 73
4
 40
28.5749999999999993
 49
19.0500000000000007
 74
0
 49
-3.1749999999999998
 74
0
 49
3.1749999999999998
 74
0
 49
-3.1749999999999998
 74
0
  0
LTYPE
  5
3F
100
AcDbSymbolTableRecord
100
AcDbLinetypeTableRecord
  2
CENTERX2
 70
0
  3
Center (2x) ________  __  ________  __  _____
 72
65
 73
4
 40
101.5999999999999943
 49
63.5
 74
0
 49
-12.6999999999999993
 74
0
 49
12.6999999999999993
 74
0
 49
-12.6999999999999993
 74
0
  0
LTYPE
  5
40
100
AcDbSymbolTableRecord
100
AcDbLinetypeTableRecord
  2
BORDER
 70
0
  3
Border __ __ . __ __ . __ __ . __ __ . __ __ .
 72
65
 73
6
 40
44.4500000000000028
 49
12.6999999999999993
 74
0
 49
-6.3499999999999996
 74
0
 49
12.6999999999999993
 74
0
 49
-6.3499999999999996
 74
0
 49
0.0
 74
0
 49
-6.3499999999999996
 74
0
  0
LTYPE
  5
41
100
AcDbSymbolTableRecord
100
AcDbLinetypeTableRecord
  2
BORDER2
 70
0
  3
Border (.5x) __.__.__.__.__.__.__.__.__.__.__.
 72
65
 73
6
 40
22.2250000000000014
 49
6.3499999999999996
 74
0
 49
-3.1749999999999998
 74
0
 49
6.3499999999999996
 74
0
 49
-3.1749999999999998
 74
0
 49
0.0
 74
0
 49
-3.1749999999999998
 74
0
  0
LTYPE
  5
42
100
AcDbSymbolTableRecord
100
AcDbLinetypeTableRecord
  2
BORDERX2
 70
0
  3
Border (2x) ____  ____  .  ____  ____  .  ___
 72
65
 73
6
 40
88.9000000000000057
 49
25.3999999999999986
 74
0
 49
-12.6999999999999993
 74
0
 49
25.3999999999999986
 74
0
 49
-12.6999999999999993
 74
0
 49
0.0
 74
0
 49
-12.6999999999999993
 74
0
  0
ENDTAB
  0
TABLE
  2
LAYER
  5
2
100
AcDbSymbolTable
 70
13
  0
LAYER
  5
10
100
AcDbSymbolTableRecord
100
AcDbLayerTableRecord
  2
0
 70
0
 62
7
420
16777215
  6
CONTINUOUS
370
0
390
F
  0
LAYER
  5
43
100
AcDbSymbolTableRecord
100
AcDbLayerTableRecord
  2
Rail
 70
0
 62
7
420
16777215
  6
CONTINUOUS
370
100
390
F
  0
LAYER
  5
44
100
AcDbSymbolTableRecord
100
AcDbLayerTableRecord
  2
UHMW
 70
0
 62
1
420
16711680
  6
CONTINUOUS
370
50
390
F
  0
LAYER
  5
45
100
AcDbSymbolTableRecord
100
AcDbLayerTableRecord
  2
Screw
 70
0
 62
3
420
65280
  6
CONTINUOUS
370
100
390
F
  0
LAYER
  5
46
100
AcDbSymbolTableRecord
100
AcDbLayerTableRecord
  2
Rocket
 70
0
 62
7
420
16777215
  6
CONTINUOUS
370
100
390
F
  0
LAYER
  5
47
100
AcDbSymbolTableRecord
100
AcDbLayerTableRecord
  2
Washer
 70
0
 62
6
420
16711935
  6
CONTINUOUS
370
100
390
F
  0
LAYER
  5
48
100
AcDbSymbolTableRecord
100
AcDbLayerTableRecord
  2
UHMWDim
 70
4
 62
7
420
16777215
  6
CONTINUOUS
370
13
390
F
  0
LAYER
  5
49
100
AcDbSymbolTableRecord
100
AcDbLayerTableRecord
  2
Fins
 70
0
 62
8
420
8355711
  6
CONTINUOUS
370
100
390
F
  0
LAYER
  5
4A
100
AcDbSymbolTableRecord
100
AcDbLayerTableRecord
  2
Tower
 70
0
 62
3
420
65280
  6
CONTINUOUS
370
200
390
F
  0
LAYER
  5
4B
100
AcDbSymbolTableRecord
100
AcDbLayerTableRecord
  2
Vee
 70
0
 62
5
420
255
  6
CONTINUOUS
370
100
390
F
  0
LAYER
  5
4C
100
AcDbSymbolTableRecord
100
AcDbLayerTableRecord
  2
VeeMate
 70
0
 62
6
420
16711935
  6
CONTINUOUS
370
100
390
F
  0
LAYER
  5
4D
100
AcDbSymbolTableRecord
100
AcDbLayerTableRecord
  2
MountingPlate
 70
0
 62
7
420
16777215
  6
CONTINUOUS
370
100
390
F
  0
LAYER
  5
4E
100
AcDbSymbolTableRecord
100
AcDbLayerTableRecord
  2
Notes
 70
0
 62
2
420
16776960
  6
CONTINUOUS
370
0
390
F
  0
ENDTAB
  0
TABLE
  2
STYLE
  5
3
100
AcDbSymbolTable
 70
1
  0
STYLE
  5
11
100
AcDbSymbolTableRecord
100
AcDbTextStyleTableRecord
  2
Standard
 70
0
 40
0.0
 41
0.75
 50
0.0
 71
0
 42
2.5
  3
txt
  4

  0
ENDTAB
  0
TABLE
  2
VIEW
  5
6
100
AcDbSymbolTable
 70
0
  0
ENDTAB
  0
TABLE
  2
UCS
  5
7
100
AcDbSymbolTable
 70
0
  0
ENDTAB
  0
TABLE
  2
APPID
  5
9
100
AcDbSymbolTable
 70
1
  0
APPID
  5
12
100
AcDbSymbolTableRecord
100
AcDbRegAppTableRecord
  2
ACAD
 70
0
  0
ENDTAB
  0
TABLE
  2
DIMSTYLE
  5
A
100
AcDbSymbolTable
 70
1
100
AcDbDimStyleTable
 71
0
  0
DIMSTYLE
105
27
100
AcDbSymbolTableRecord
100
AcDbDimStyleTableRecord
  2
Standard
 41
0.1
 42
0.025
 43
3.75
 44
0.05
 70
0
 73
0
 74
0
 77
1
 78
8
140
0.1
141
2.5
143
0.03937007874016
147
0.025
171
3
172
1
271
2
272
2
274
3
278
44
283
0
284
8
340
11
  0
ENDTAB
  0
TABLE
  2
BLOCK_RECORD
  5
1
100
AcDbSymbolTable
 70
1
  0
BLOCK_RECORD
  5
1F
100
AcDbSymbolTableRecord
100
AcDbBlockTableRecord
  2
*Model_Space
340
22
  0
BLOCK_RECORD
  5
1B
100
AcDbSymbolTableRecord
100
AcDbBlockTableRecord
  2
*Paper_Space
340
1E
  0
BLOCK_RECORD
  5
23
100
AcDbSymbolTableRecord
100
AcDbBlockTableRecord
  2
*Paper_Space0
340
26
  0
ENDTAB
  0
ENDSEC
  0
SECTION
  2
BLOCKS
  0
BLOCK
  5
20
100
AcDbEntity
  8
0
100
AcDbBlockBegin
  2
*Model_Space
 70
0
 10
0.0
 20
0.0
 30
0.0
  3
*Model_Space
  1

  0
ENDBLK
  5
21
100
AcDbEntity
  8
0
100
AcDbBlockEnd
  0
BLOCK
  5
1C
100
AcDbEntity
 67
1
  8
0
100
AcDbBlockBegin
  2
*Paper_Space
 70
0
 10
0.0
 20
0.0
 30
0.0
  3
*Paper_Space
  1

  0
ENDBLK
  5
1D
100
AcDbEntity
 67
1
  8
0
100
AcDbBlockEnd
  0
BLOCK
  5
24
100
AcDbEntity
  8
0
100
AcDbBlockBegin
  2
*Paper_Space0
 70
0
 10
0.0
 20
0.0
 30
0.0
  3
*Paper_Space0
  1

  0
ENDBLK
  5
25
100
AcDbEntity
  8
0
100
AcDbBlockEnd
  0
ENDSEC
  0
SECTION
  2
ENTITIES
  0
ARC
  5
4F
100
AcDbEntity
  8
Rail
 62
256
370
-1
  6
ByLayer
100
AcDbCircle
 10
2.0150000000000001
 20
2.0576570723664904
 30
0.0
 40
0.025
100
AcDbArc
 50
180.0
 51
292.0651957848707525
  0
ARC
  5
50
100
AcDbEntity
  8
Rail
 62
7
420
16777215
370
100
  6
CONTINUOUS
100
AcDbCircle
 10
2.0860000000000003
 20
1.8824999999999998
 30
0.0
 40
0.164
100
AcDbArc
 50
247.9348042151290201
 51
112.0651957848709515
  0
ARC
  5
51
100
AcDbEntity
  8
Rail
 62
7
420
16777215
370
100
  6
CONTINUOUS
100
AcDbCircle
 10
3.0740000000000003
 20
1.8824999999999998
 30
0.0
 40
0.164
100
AcDbArc
 50
67.9348042151291907
 51
292.0651957848707525
  0
ARC
  5
52
100
AcDbEntity
  8
Rail
 62
256
370
-1
  6
ByLayer
100
AcDbCircle
 10
3.145
 20
2.0576570723664904
 30
0.0
 40
0.025
100
AcDbArc
 50
247.9348042151287075
 51
0.0
  0
ARC
  5
53
100
AcDbEntity
  8
Rail
 62
256
370
-1
  6
ByLayer
100
AcDbCircle
 10
2.3275000000000001
 20
2.3153913733724716
 30
0.0
 40
0.1875
100
AcDbArc
 50
180.0
 51
250.0000000000000284
  0
ARC
  5
54
100
AcDbEntity
  8
Rail
 62
256
370
-1
  6
ByLayer
100
AcDbCircle
 10
2.8325
 20
2.3153913733724711
 30
0.0
 40
0.1875
100
AcDbArc
 50
289.9999999999999432
 51
0.0
  0
LINE
  5
55
100
AcDbEntity
100
AcDbLine
  8
Rail
 62
256
370
-1
  6
ByLayer
 10
2.2633712231264371
 20
2.1391990069751134
 30
0.0
 11
2.4944949641685832
 21
2.0550768448035228
 31
0.0
  0
LINE
  5
56
100
AcDbEntity
100
AcDbLine
  8
Rail
 62
256
370
-1
  6
ByLayer
 10
2.8966287768735626
 20
2.1391990069751134
 30
0.0
 11
2.6655050358314174
 21
2.0550768448035228
 31
0.0
  0
ARC
  5
57
100
AcDbEntity
  8
Rail
 62
7
420
16777215
370
100
  6
CONTINUOUS
100
AcDbCircle
 10
2.5800000000000001
 20
2.29
 30
0.0
 40
0.25
100
AcDbArc
 50
250.0000000000000853
 51
290.0
  0
LINE
  5
58
100
AcDbEntity
100
AcDbLine
  8
Rail
 62
256
370
-1
  6
ByLayer
 10
2.2633712231264371
 20
1.6258009930248862
 30
0.0
 11
2.4944949641685832
 21
1.7099231551964769
 31
0.0
  0
LINE
  5
59
100
AcDbEntity
100
AcDbLine
  8
Rail
 62
256
370
-1
  6
ByLayer
 10
2.8966287768735626
 20
1.6258009930248862
 30
0.0
 11
2.6655050358314174
 21
1.7099231551964769
 31
0.0
  0
ARC
  5
5A
100
AcDbEntity
  8
Rail
 62
7
420
16777215
370
100
  6
CONTINUOUS
100
AcDbCircle
 10
2.5800000000000001
 20
1.4749999999999996
 30
0.0
 40
0.25
100
AcDbArc
 50
69.9999999999999858
 51
109.9999999999999432
  0
LINE
  5
5B
100
AcDbEntity
100
AcDbLine
  8
Rail
 62
256
370
-1
  6
ByLayer
 10
2.3420000000000001
 20
2.6964999999999999
 30
0.0
 11
2.3420000000000001
 21
2.7624999999999997
 31
0.0
  0
LINE
  5
5C
100
AcDbEntity
100
AcDbLine
  8
Rail
 62
256
370
-1
  6
ByLayer
 10
2.375
 20
2.6964999999999999
 30
0.0
 11
2.3420000000000001
 21
2.6964999999999999
 31
0.0
  0
LINE
  5
5D
100
AcDbEntity
100
AcDbLine
  8
Rail
 62
256
370
-1
  6
ByLayer
 10
2.8180000000000001
 20
2.6964999999999999
 30
0.0
 11
2.7850000000000001
 21
2.6964999999999999
 31
0.0
  0
LINE
  5
5E
100
AcDbEntity
100
AcDbLine
  8
Rail
 62
256
370
-1
  6
ByLayer
 10
2.375
 20
2.5274999999999999
 30
0.0
 11
2.375
 21
2.6964999999999999
 31
0.0
  0
LINE
  5
5F
100
AcDbEntity
100
AcDbLine
  8
Rail
 62
256
370
-1
  6
ByLayer
 10
2.7850000000000001
 20
2.5274999999999999
 30
0.0
 11
2.7850000000000001
 21
2.6964999999999999
 31
0.0
  0
LINE
  5
60
100
AcDbEntity
100
AcDbLine
  8
Rail
 62
256
370
-1
  6
ByLayer
 10
2.036
 20
2.7024999999999997
 30
0.0
 11
2.036
 21
2.7624999999999997
 31
0.0
  0
LINE
  5
61
100
AcDbEntity
100
AcDbLine
  8
Rail
 62
256
370
-1
  6
ByLayer
 10
2.036
 20
2.7024999999999997
 30
0.0
 11
1.3420000000000001
 21
2.7024999999999997
 31
0.0
  0
LINE
  5
62
100
AcDbEntity
100
AcDbLine
  8
Rail
 62
256
370
-1
  6
ByLayer
 10
2.3420000000000001
 20
2.7624999999999997
 30
0.0
 11
2.036
 21
2.7624999999999997
 31
0.0
  0
LINE
  5
63
100
AcDbEntity
100
AcDbLine
  8
Rail
 62
256
370
-1
  6
ByLayer
 10
1.3420000000000001
 20
2.7024999999999997
 30
0.0
 11
1.3420000000000001
 21
2.7624999999999997
 31
0.0
  0
LINE
  5
64
100
AcDbEntity
100
AcDbLine
  8
Rail
 62
256
370
-1
  6
ByLayer
 10
2.8180000000000001
 20
2.6964999999999999
 30
0.0
 11
2.8180000000000001
 21
2.7624999999999997
 31
0.0
  0
LINE
  5
65
100
AcDbEntity
100
AcDbLine
  8
Rail
 62
256
370
-1
  6
ByLayer
 10
1.4350000000000003
 20
2.3154999999999997
 30
0.0
 11
1.4350000000000003
 21
2.4274999999999998
 31
0.0
  0
ARC
  5
66
100
AcDbEntity
  8
Rail
 62
256
370
-1
  6
ByLayer
100
AcDbCircle
 10
1.5600000000000003
 20
2.4274999999999998
 30
0.0
 40
0.125
100
AcDbArc
 50
90.0
 51
180.0
  0
LINE
  5
67
100
AcDbEntity
100
AcDbLine
  8
Rail
 62
256
370
-1
  6
ByLayer
 10
1.9900000000000002
 20
2.0576570723664904
 30
0.0
 11
1.9900000000000002
 21
2.5524999999999998
 31
0.0
  0
LINE
  5
68
100
AcDbEntity
100
AcDbLine
  8
Rail
 62
256
370
-1
  6
ByLayer
 10
1.9900000000000002
 20
2.5524999999999998
 30
0.0
 11
1.5600000000000003
 21
2.5524999999999998
 31
0.0
  0
LINE
  5
69
100
AcDbEntity
100
AcDbLine
  8
Rail
 62
256
370
-1
  6
ByLayer
 10
2.1400000000000001
 20
2.3153913733724716
 30
0.0
 11
2.1400000000000001
 21
2.5274999999999999
 31
0.0
  0
LINE
  5
6A
100
AcDbEntity
100
AcDbLine
  8
Rail
 62
256
370
-1
  6
ByLayer
 10
2.375
 20
2.5274999999999999
 30
0.0
 11
2.1400000000000001
 21
2.5274999999999999
 31
0.0
  0
LINE
  5
6B
100
AcDbEntity
100
AcDbLine
  8
Rail
 62
256
370
-1
  6
ByLayer
 10
3.02
 20
2.3153913733724711
 30
0.0
 11
3.02
 21
2.5274999999999999
 31
0.0
  0
LINE
  5
6C
100
AcDbEntity
100
AcDbLine
  8
Rail
 62
256
370
-1
  6
ByLayer
 10
3.02
 20
2.5274999999999999
 30
0.0
 11
2.7850000000000001
 21
2.5274999999999999
 31
0.0
  0
LINE
  5
6D
100
AcDbEntity
100
AcDbLine
  8
Rail
 62
256
370
-1
  6
ByLayer
 10
2.375
 20
1.2374999999999996
 30
0.0
 11
2.1400000000000001
 21
1.2374999999999996
 31
0.0
  0
LINE
  5
6E
100
AcDbEntity
100
AcDbLine
  8
Rail
 62
256
370
-1
  6
ByLayer
 10
3.02
 20
1.2374999999999994
 30
0.0
 11
2.7850000000000001
 21
1.2374999999999994
 31
0.0
  0
LINE
  5
6F
100
AcDbEntity
100
AcDbLine
  8
Rail
 62
256
370
-1
  6
ByLayer
 10
2.8180000000000001
 20
1.0684999999999996
 30
0.0
 11
2.7850000000000001
 21
1.0684999999999996
 31
0.0
  0
LINE
  5
70
100
AcDbEntity
100
AcDbLine
  8
Rail
 62
256
370
-1
  6
ByLayer
 10
2.375
 20
1.0684999999999996
 30
0.0
 11
2.3420000000000001
 21
1.0684999999999996
 31
0.0
  0
LINE
  5
71
100
AcDbEntity
100
AcDbLine
  8
Rail
 62
256
370
-1
  6
ByLayer
 10
2.375
 20
1.0684999999999996
 30
0.0
 11
2.375
 21
1.2374999999999996
 31
0.0
  0
LINE
  5
72
100
AcDbEntity
100
AcDbLine
  8
Rail
 62
256
370
-1
  6
ByLayer
 10
2.7850000000000001
 20
1.0684999999999996
 30
0.0
 11
2.7850000000000001
 21
1.2374999999999994
 31
0.0
  0
LINE
  5
73
100
AcDbEntity
100
AcDbLine
  8
Rail
 62
256
370
-1
  6
ByLayer
 10
2.8180000000000001
 20
1.0024999999999995
 30
0.0
 11
2.8180000000000001
 21
1.0684999999999996
 31
0.0
  0
LINE
  5
74
100
AcDbEntity
100
AcDbLine
  8
Rail
 62
256
370
-1
  6
ByLayer
 10
2.3420000000000001
 20
1.0024999999999995
 30
0.0
 11
2.3420000000000001
 21
1.0684999999999996
 31
0.0
  0
ARC
  5
75
100
AcDbEntity
  8
Rail
 62
256
370
-1
  6
ByLayer
100
AcDbCircle
 10
2.0150000000000001
 20
1.7073429276335095
 30
0.0
 40
0.025
100
AcDbArc
 50
67.9348042151292049
 51
180.0
  0
ARC
  5
76
100
AcDbEntity
  8
Rail
 62
256
370
-1
  6
ByLayer
100
AcDbCircle
 10
3.145
 20
1.7073429276335093
 30
0.0
 40
0.025
100
AcDbArc
 50
0.0
 51
112.0651957848712783
  0
ARC
  5
77
100
AcDbEntity
  8
Rail
 62
256
370
-1
  6
ByLayer
100
AcDbCircle
 10
2.8325
 20
1.4496086266275285
 30
0.0
 40
0.1875
100
AcDbArc
 50
0.0
 51
70.0000000000000853
  0
LINE
  5
78
100
AcDbEntity
100
AcDbLine
  8
Rail
 62
256
370
-1
  6
ByLayer
 10
3.02
 20
1.2374999999999994
 30
0.0
 11
3.02
 21
1.4496086266275285
 31
0.0
  0
ARC
  5
79
100
AcDbEntity
  8
Rail
 62
256
370
-1
  6
ByLayer
100
AcDbCircle
 10
2.3275000000000001
 20
1.4496086266275281
 30
0.0
 40
0.1875
100
AcDbArc
 50
109.9999999999999858
 51
180.0
  0
LINE
  5
7A
100
AcDbEntity
100
AcDbLine
  8
Rail
 62
256
370
-1
  6
ByLayer
 10
2.1400000000000001
 20
1.2374999999999996
 30
0.0
 11
2.1400000000000001
 21
1.4496086266275281
 31
0.0
  0
LINE
  5
7B
100
AcDbEntity
100
AcDbLine
  8
Rail
 62
256
370
-1
  6
ByLayer
 10
1.4350000000000003
 20
2.3154999999999997
 30
0.0
 11
1.2350000000000001
 21
2.3154999999999997
 31
0.0
  0
LINE
  5
7C
100
AcDbEntity
100
AcDbLine
  8
Rail
 62
256
370
-1
  6
ByLayer
 10
1.2350000000000001
 20
2.0800000000000001
 30
0.0
 11
1.2350000000000001
 21
2.3154999999999997
 31
0.0
  0
LINE
  5
7D
100
AcDbEntity
100
AcDbLine
  8
Rail
 62
256
370
-1
  6
ByLayer
 10
1.0
 20
2.1150000000000002
 30
0.0
 11
1.0650000000000002
 21
2.1150000000000002
 31
0.0
  0
LINE
  5
7E
100
AcDbEntity
100
AcDbLine
  8
Rail
 62
256
370
-1
  6
ByLayer
 10
1.0650000000000002
 20
2.0800000000000001
 30
0.0
 11
1.2350000000000001
 21
2.0800000000000001
 31
0.0
  0
LINE
  5
7F
100
AcDbEntity
100
AcDbLine
  8
Rail
 62
256
370
-1
  6
ByLayer
 10
1.0650000000000002
 20
2.0800000000000001
 30
0.0
 11
1.0650000000000002
 21
2.1150000000000002
 31
0.0
  0
LINE
  5
80
100
AcDbEntity
100
AcDbLine
  8
Rail
 62
256
370
-1
  6
ByLayer
 10
1.0750000000000002
 20
2.3930000000000002
 30
0.0
 11
1.157399691596724
 21
2.4753996915967238
 31
0.0
  0
LINE
  5
81
100
AcDbEntity
100
AcDbLine
  8
Rail
 62
256
370
-1
  6
ByLayer
 10
2.036
 20
1.0625
 30
0.0
 11
1.3420000000000001
 21
1.0625
 31
0.0
  0
LINE
  5
82
100
AcDbEntity
100
AcDbLine
  8
Rail
 62
256
370
-1
  6
ByLayer
 10
1.3420000000000001
 20
1.0625
 30
0.0
 11
1.3420000000000001
 21
1.0024999999999999
 31
0.0
  0
LINE
  5
83
100
AcDbEntity
100
AcDbLine
  8
Rail
 62
256
370
-1
  6
ByLayer
 10
1.4350000000000003
 20
1.4495
 30
0.0
 11
1.4350000000000003
 21
1.3374999999999999
 31
0.0
  0
ARC
  5
84
100
AcDbEntity
  8
Rail
 62
256
370
-1
  6
ByLayer
100
AcDbCircle
 10
1.5600000000000003
 20
1.3374999999999999
 30
0.0
 40
0.125
100
AcDbArc
 50
180.0
 51
270.0
  0
LINE
  5
85
100
AcDbEntity
100
AcDbLine
  8
Rail
 62
256
370
-1
  6
ByLayer
 10
1.4350000000000003
 20
1.4495
 30
0.0
 11
1.2350000000000001
 21
1.4495
 31
0.0
  0
LINE
  5
86
100
AcDbEntity
100
AcDbLine
  8
Rail
 62
256
370
-1
  6
ByLayer
 10
1.2350000000000001
 20
1.6849999999999996
 30
0.0
 11
1.2350000000000001
 21
1.4495
 31
0.0
  0
LINE
  5
87
100
AcDbEntity
100
AcDbLine
  8
Rail
 62
256
370
-1
  6
ByLayer
 10
1.0650000000000002
 20
1.6849999999999996
 30
0.0
 11
1.2350000000000001
 21
1.6849999999999996
 31
0.0
  0
LINE
  5
88
100
AcDbEntity
100
AcDbLine
  8
Rail
 62
256
370
-1
  6
ByLayer
 10
1.0650000000000002
 20
1.6849999999999996
 30
0.0
 11
1.0650000000000002
 21
1.6499999999999995
 31
0.0
  0
LINE
  5
89
100
AcDbEntity
100
AcDbLine
  8
Rail
 62
256
370
-1
  6
ByLayer
 10
1.0750000000000002
 20
1.3719999999999994
 30
0.0
 11
1.157399691596724
 21
1.2896003084032759
 31
0.0
  0
LINE
  5
8A
100
AcDbEntity
100
AcDbLine
  8
Rail
 62
256
370
-1
  6
ByLayer
 10
1.0000000000000002
 20
1.6499999999999995
 30
0.0
 11
1.0650000000000002
 21
1.6499999999999995
 31
0.0
  0
LINE
  5
8B
100
AcDbEntity
100
AcDbLine
  8
Rail
 62
256
370
-1
  6
ByLayer
 10
2.036
 20
1.0625
 30
0.0
 11
2.036
 21
1.0024999999999995
 31
0.0
  0
LINE
  5
8C
100
AcDbEntity
100
AcDbLine
  8
Rail
 62
256
370
-1
  6
ByLayer
 10
2.3420000000000001
 20
1.0024999999999995
 30
0.0
 11
2.036
 21
1.0024999999999995
 31
0.0
  0
LINE
  5
8D
100
AcDbEntity
100
AcDbLine
  8
Rail
 62
256
370
-1
  6
ByLayer
 10
1.9900000000000002
 20
1.2124999999999999
 30
0.0
 11
1.5600000000000003
 21
1.2124999999999999
 31
0.0
  0
LINE
  5
8E
100
AcDbEntity
100
AcDbLine
  8
Rail
 62
256
370
-1
  6
ByLayer
 10
1.9900000000000002
 20
1.2124999999999999
 30
0.0
 11
1.9900000000000002
 21
1.7073429276335095
 31
0.0
  0
LINE
  5
8F
100
AcDbEntity
100
AcDbLine
  8
Rail
 62
256
370
-1
  6
ByLayer
 10
1.0000000000000002
 20
2.3930000000000002
 30
0.0
 11
1.0750000000000002
 21
2.3930000000000002
 31
0.0
  0
LINE
  5
90
100
AcDbEntity
100
AcDbLine
  8
Rail
 62
256
370
-1
  6
ByLayer
 10
1.0000000000000002
 20
2.1150000000000002
 30
0.0
 11
1.0000000000000002
 21
2.3930000000000002
 31
0.0
  0
LINE
  5
91
100
AcDbEntity
100
AcDbLine
  8
Rail
 62
256
370
-1
  6
ByLayer
 10
1.0
 20
1.3719999999999994
 30
0.0
 11
1.0000000000000002
 21
1.6499999999999995
 31
0.0
  0
LINE
  5
92
100
AcDbEntity
100
AcDbLine
  8
Rail
 62
256
370
-1
  6
ByLayer
 10
1.0
 20
1.3719999999999994
 30
0.0
 11
1.0750000000000002
 21
1.3719999999999994
 31
0.0
  0
LINE
  5
93
100
AcDbEntity
100
AcDbLine
  8
Rail
 62
256
370
-1
  6
ByLayer
 10
1.0000000000000002
 20
2.5709999999999997
 30
0.0
 11
1.0000000000000002
 21
2.6374999999999997
 31
0.0
  0
LINE
  5
94
100
AcDbEntity
100
AcDbLine
  8
Rail
 62
256
370
-1
  6
ByLayer
 10
1.3420000000000001
 20
2.7624999999999997
 30
0.0
 11
1.1250000000000002
 21
2.7624999999999997
 31
0.0
  0
ARC
  5
95
100
AcDbEntity
  8
Rail
 62
256
370
-1
  6
ByLayer
100
AcDbCircle
 10
1.1250000000000002
 20
2.6374999999999997
 30
0.0
 40
0.125
100
AcDbArc
 50
90.0
 51
180.0
  0
LINE
  5
96
100
AcDbEntity
100
AcDbLine
  8
Rail
 62
256
370
-1
  6
ByLayer
 10
1.0750000000000002
 20
2.5709999999999997
 30
0.0
 11
1.0000000000000002
 21
2.5709999999999997
 31
0.0
  0
LINE
  5
97
100
AcDbEntity
100
AcDbLine
  8
Rail
 62
256
370
-1
  6
ByLayer
 10
1.1030686695278973
 20
2.6208211781367492
 30
0.0
 11
1.0750000000000002
 21
2.5709999999999997
 31
0.0
  0
ARC
  5
98
100
AcDbEntity
  8
Rail
 62
7
420
16777215
370
100
  6
CONTINUOUS
100
AcDbCircle
 10
1.1915000000000002
 20
2.5709999999999997
 30
0.0
 40
0.1015
100
AcDbArc
 50
250.3688535886976467
 51
150.6035978288785202
  0
ARC
  5
99
100
AcDbEntity
  8
Rail
 62
7
420
16777215
370
100
  6
CONTINUOUS
100
AcDbCircle
 10
1.1915000000000002
 20
1.194
 30
0.0
 40
0.1015
100
AcDbArc
 50
209.3964021711213377
 51
109.6311464113023675
  0
LINE
  5
9A
100
AcDbEntity
100
AcDbLine
  8
Rail
 62
256
370
-1
  6
ByLayer
 10
1.1030686695278973
 20
1.1441788218632507
 30
0.0
 11
1.0750000000000002
 21
1.194
 31
0.0
  0
LINE
  5
9B
100
AcDbEntity
100
AcDbLine
  8
Rail
 62
256
370
-1
  6
ByLayer
 10
1.0750000000000002
 20
1.194
 30
0.0
 11
1.0000000000000002
 21
1.194
 31
0.0
  0
LINE
  5
9C
100
AcDbEntity
100
AcDbLine
  8
Rail
 62
256
370
-1
  6
ByLayer
 10
1.0
 20
1.1274999999999999
 30
0.0
 11
1.0
 21
1.194
 31
0.0
  0
LINE
  5
9D
100
AcDbEntity
100
AcDbLine
  8
Rail
 62
256
370
-1
  6
ByLayer
 10
1.3420000000000001
 20
1.0024999999999997
 30
0.0
 11
1.125
 21
1.0024999999999999
 31
0.0
  0
ARC
  5
9E
100
AcDbEntity
  8
Rail
 62
256
370
-1
  6
ByLayer
100
AcDbCircle
 10
1.125
 20
1.1274999999999999
 30
0.0
 40
0.125
100
AcDbArc
 50
180.0
 51
270.0
  0
LINE
  5
9F
100
AcDbEntity
100
AcDbLine
  8
Rail
 62
256
370
-1
  6
ByLayer
 10
3.9249999999999998
 20
2.7124999999999995
 30
0.0
 11
3.9249999999999998
 21
2.7624999999999993
 31
0.0
  0
LINE
  5
A0
100
AcDbEntity
100
AcDbLine
  8
Rail
 62
256
370
-1
  6
ByLayer
 10
3.96
 20
2.7124999999999995
 30
0.0
 11
3.9249999999999998
 21
2.7124999999999995
 31
0.0
  0
LINE
  5
A1
100
AcDbEntity
100
AcDbLine
  8
Rail
 62
256
370
-1
  6
ByLayer
 10
3.4899999999999998
 20
2.6574999999999993
 30
0.0
 11
3.4899999999999998
 21
2.7624999999999993
 31
0.0
  0
LINE
  5
A2
100
AcDbEntity
100
AcDbLine
  8
Rail
 62
256
370
-1
  6
ByLayer
 10
3.6099999999999999
 20
2.6574999999999993
 30
0.0
 11
3.6099999999999999
 21
2.7624999999999993
 31
0.0
  0
LINE
  5
A3
100
AcDbEntity
100
AcDbLine
  8
Rail
 62
256
370
-1
  6
ByLayer
 10
3.6099999999999999
 20
2.6574999999999993
 30
0.0
 11
3.4899999999999998
 21
2.6574999999999993
 31
0.0
  0
LINE
  5
A4
100
AcDbEntity
100
AcDbLine
  8
Rail
 62
256
370
-1
  6
ByLayer
 10
3.9249999999999998
 20
2.7624999999999993
 30
0.0
 11
3.6099999999999999
 21
2.7624999999999993
 31
0.0
  0
LINE
  5
A5
100
AcDbEntity
100
AcDbLine
  8
Rail
 62
256
370
-1
  6
ByLayer
 10
3.4899999999999998
 20
2.7624999999999993
 30
0.0
 11
2.8180000000000001
 21
2.7624999999999997
 31
0.0
  0
LINE
  5
A6
100
AcDbEntity
100
AcDbLine
  8
Rail
 62
256
370
-1
  6
ByLayer
 10
3.1699999999999999
 20
2.0576570723664904
 30
0.0
 11
3.1699999999999999
 21
2.5944999999999991
 31
0.0
  0
LINE
  5
A7
100
AcDbEntity
100
AcDbLine
  8
Rail
 62
256
370
-1
  6
ByLayer
 10
3.8849999999999993
 20
2.3799999999999994
 30
0.0
 11
3.8516405304208172
 21
2.5304748431084731
 31
0.0
  0
LINE
  5
A8
100
AcDbEntity
100
AcDbLine
  8
Rail
 62
256
370
-1
  6
ByLayer
 10
3.6599999999999997
 20
2.4934999999999992
 30
0.0
 11
3.4899999999999998
 21
2.4934999999999992
 31
0.0
  0
LINE
  5
A9
100
AcDbEntity
100
AcDbLine
  8
Rail
 62
256
370
-1
  6
ByLayer
 10
3.2394999999999996
 20
2.5944999999999991
 30
0.0
 11
3.1699999999999999
 21
2.5944999999999991
 31
0.0
  0
LINE
  5
AA
100
AcDbEntity
100
AcDbLine
  8
Rail
 62
256
370
-1
  6
ByLayer
 10
3.6599999999999997
 20
2.4934999999999992
 30
0.0
 11
3.6599999999999997
 21
2.5704999999999991
 31
0.0
  0
ARC
  5
AB
100
AcDbEntity
  8
Rail
 62
7
420
16777215
370
100
  6
CONTINUOUS
100
AcDbCircle
 10
3.7599999999999998
 20
2.5704999999999991
 30
0.0
 40
0.1
100
AcDbArc
 50
336.4060937938828602
 51
180.0
  0
ARC
  5
AC
100
AcDbEntity
  8
Rail
 62
256
370
-1
  6
ByLayer
100
AcDbCircle
 10
3.4899999999999998
 20
2.6809999999999992
 30
0.0
 40
0.1875
100
AcDbArc
 50
219.4553270879766558
 51
270.0
  0
ARC
  5
AD
100
AcDbEntity
  8
Rail
 62
7
420
16777215
370
100
  6
CONTINUOUS
100
AcDbCircle
 10
3.2394999999999996
 20
2.4069999999999991
 30
0.0
 40
0.1875
100
AcDbArc
 50
55.6754676675386762
 51
90.0
  0
LINE
  5
AE
100
AcDbEntity
100
AcDbLine
  8
Rail
 62
256
370
-1
  6
ByLayer
 10
3.9249999999999998
 20
1.0525000000000011
 30
0.0
 11
3.9249999999999998
 21
1.0024999999999999
 31
0.0
  0
LINE
  5
AF
100
AcDbEntity
100
AcDbLine
  8
Rail
 62
256
370
-1
  6
ByLayer
 10
3.4899999999999998
 20
1.1074999999999997
 30
0.0
 11
3.4899999999999998
 21
1.0025000000000004
 31
0.0
  0
LINE
  5
B0
100
AcDbEntity
100
AcDbLine
  8
Rail
 62
256
370
-1
  6
ByLayer
 10
3.6099999999999999
 20
1.1075000000000006
 30
0.0
 11
3.6099999999999999
 21
1.0025000000000004
 31
0.0
  0
LINE
  5
B1
100
AcDbEntity
100
AcDbLine
  8
Rail
 62
256
370
-1
  6
ByLayer
 10
3.6099999999999999
 20
1.1075000000000006
 30
0.0
 11
3.4899999999999998
 21
1.1074999999999997
 31
0.0
  0
LINE
  5
B2
100
AcDbEntity
100
AcDbLine
  8
Rail
 62
256
370
-1
  6
ByLayer
 10
3.96
 20
1.3850000000000011
 30
0.0
 11
3.8849999999999993
 21
1.3850000000000022
 31
0.0
  0
LINE
  5
B3
100
AcDbEntity
100
AcDbLine
  8
Rail
 62
256
370
-1
  6
ByLayer
 10
3.8849999999999993
 20
1.3850000000000022
 30
0.0
 11
3.8516405304208172
 21
1.234525156891527
 31
0.0
  0
LINE
  5
B4
100
AcDbEntity
100
AcDbLine
  8
Rail
 62
256
370
-1
  6
ByLayer
 10
3.6599999999999997
 20
1.2714999999999996
 30
0.0
 11
3.4899999999999998
 21
1.2715000000000005
 31
0.0
  0
LINE
  5
B5
100
AcDbEntity
100
AcDbLine
  8
Rail
 62
256
370
-1
  6
ByLayer
 10
3.6599999999999997
 20
1.2714999999999996
 30
0.0
 11
3.6599999999999997
 21
1.1945000000000014
 31
0.0
  0
ARC
  5
B6
100
AcDbEntity
  8
Rail
 62
7
420
16777215
370
100
  6
CONTINUOUS
100
AcDbCircle
 10
3.7599999999999998
 20
1.1945000000000006
 30
0.0
 40
0.1
100
AcDbArc
 50
180.0
 51
23.593906206117147
  0
ARC
  5
B7
100
AcDbEntity
  8
Rail
 62
256
370
-1
  6
ByLayer
100
AcDbCircle
 10
3.4899999999999998
 20
1.0840000000000005
 30
0.0
 40
0.1875
100
AcDbArc
 50
90.0000000000000142
 51
140.5446729120233726
  0
ARC
  5
B8
100
AcDbEntity
  8
Rail
 62
7
420
16777215
370
100
  6
CONTINUOUS
100
AcDbCircle
 10
3.2394999999999996
 20
1.358000000000001
 30
0.0
 40
0.1875
100
AcDbArc
 50
270.0
 51
304.3245323324612741
  0
LINE
  5
B9
100
AcDbEntity
100
AcDbLine
  8
Rail
 62
256
370
-1
  6
ByLayer
 10
3.2394999999999996
 20
1.1705000000000012
 30
0.0
 11
3.1699999999999999
 21
1.1705000000000001
 31
0.0
  0
LINE
  5
BA
100
AcDbEntity
100
AcDbLine
  8
Rail
 62
256
370
-1
  6
ByLayer
 10
3.1699999999999999
 20
1.1705000000000001
 30
0.0
 11
3.1699999999999999
 21
1.7073429276335093
 31
0.0
  0
LINE
  5
BB
100
AcDbEntity
100
AcDbLine
  8
Rail
 62
256
370
-1
  6
ByLayer
 10
3.4899999999999998
 20
1.0025000000000004
 30
0.0
 11
2.8180000000000001
 21
1.0024999999999995
 31
0.0
  0
LINE
  5
BC
100
AcDbEntity
100
AcDbLine
  8
Rail
 62
256
370
-1
  6
ByLayer
 10
3.9249999999999998
 20
1.0024999999999999
 30
0.0
 11
3.6099999999999999
 21
1.0025000000000004
 31
0.0
  0
LINE
  5
BD
100
AcDbEntity
100
AcDbLine
  8
Rail
 62
256
370
-1
  6
ByLayer
 10
3.9249999999999998
 20
1.0024999999999999
 30
0.0
 11
3.6099999999999999
 21
1.0025000000000002
 31
0.0
  0
LINE
  5
BE
100
AcDbEntity
100
AcDbLine
  8
Rail
 62
256
370
-1
  6
ByLayer
 10
3.96
 20
1.0525000000000002
 30
0.0
 11
3.96
 21
1.3850000000000011
 31
0.0
  0
LINE
  5
BF
100
AcDbEntity
100
AcDbLine
  8
Rail
 62
256
370
-1
  6
ByLayer
 10
3.96
 20
1.0525000000000002
 30
0.0
 11
3.9249999999999998
 21
1.0525000000000011
 31
0.0
  0
LINE
  5
C0
100
AcDbEntity
100
AcDbLine
  8
Rail
 62
256
370
-1
  6
ByLayer
 10
3.96
 20
2.3799999999999994
 30
0.0
 11
3.96
 21
2.7124999999999995
 31
0.0
  0
LINE
  5
C1
100
AcDbEntity
100
AcDbLine
  8
Rail
 62
256
370
-1
  6
ByLayer
 10
3.96
 20
2.3799999999999994
 30
0.0
 11
3.8849999999999993
 21
2.3799999999999994
 31
0.0
  0
LINE
  5
C2
100
AcDbEntity
100
AcDbLine
  8
UHMW
 62
256
370
-1
  6
ByLayer
 10
2.2050000000000001
 20
2.2774999999999999
 30
0.0
 11
2.9550000000000001
 21
2.2774999999999999
 31
0.0
  0
LINE
  5
C3
100
AcDbEntity
100
AcDbLine
  8
UHMW
 62
256
370
-1
  6
ByLayer
 10
2.2050000000000001
 20
2.2774999999999999
 30
0.0
 11
2.2050000000000001
 21
2.5255000000000001
 31
0.0
  0
LINE
  5
C4
100
AcDbEntity
100
AcDbLine
  8
UHMW
 62
256
370
-1
  6
ByLayer
 10
2.9550000000000001
 20
2.2774999999999999
 30
0.0
 11
2.9550000000000001
 21
2.5255000000000001
 31
0.0
  0
LINE
  5
C5
100
AcDbEntity
100
AcDbLine
  8
UHMW
 62
256
370
-1
  6
ByLayer
 10
2.9550000000000001
 20
2.5255000000000001
 30
0.0
 11
2.2050000000000001
 21
2.5255000000000001
 31
0.0
  0
CIRCLE
  5
C6
100
AcDbEntity
100
AcDbCircle
  8
Rocket
 62
256
370
-1
  6
ByLayer
 10
2.5800000000000001
 20
5.9775
 30
0.0
 40
2.75
  0
LINE
  5
C7
100
AcDbEntity
100
AcDbLine
  8
Washer
 62
256
370
-1
  6
ByLayer
 10
2.2050000000000001
 20
2.2275
 30
0.0
 11
2.9550000000000001
 21
2.2275
 31
0.0
  0
LINE
  5
C8
100
AcDbEntity
100
AcDbLine
  8
Washer
 62
256
370
-1
  6
ByLayer
 10
2.2050000000000001
 20
2.2774999999999999
 30
0.0
 11
2.9550000000000001
 21
2.2774999999999999
 31
0.0
  0
LINE
  5
C9
100
AcDbEntity
100
AcDbLine
  8
Washer
 62
256
370
-1
  6
ByLayer
 10
2.2050000000000001
 20
2.2774999999999999
 30
0.0
 11
2.2050000000000001
 21
2.2774999999999999
 31
0.0
  0
LINE
  5
CA
100
AcDbEntity
100
AcDbLine
  8
Washer
 62
256
370
-1
  6
ByLayer
 10
2.2050000000000001
 20
2.2774999999999999
 30
0.0
 11
2.2050000000000001
 21
2.2275
 31
0.0
  0
LINE
  5
CB
100
AcDbEntity
100
AcDbLine
  8
Washer
 62
256
370
-1
  6
ByLayer
 10
2.9550000000000001
 20
2.2275
 30
0.0
 11
2.9550000000000001
 21
2.2774999999999999
 31
0.0
  0
LINE
  5
CC
100
AcDbEntity
100
AcDbLine
  8
Screw
 62
256
370
-1
  6
ByLayer
 10
2.3900000000000001
 20
2.2275
 30
0.0
 11
2.77
 21
2.2275
 31
0.0
  0
LINE
  5
CD
100
AcDbEntity
100
AcDbLine
  8
Screw
 62
256
370
-1
  6
ByLayer
 10
2.77
 20
2.1025
 30
0.0
 11
2.77
 21
2.2275
 31
0.0
  0
LINE
  5
CE
100
AcDbEntity
100
AcDbLine
  8
Screw
 62
256
370
-1
  6
ByLayer
 10
2.3900000000000001
 20
2.1025
 30
0.0
 11
2.77
 21
2.1025
 31
0.0
  0
LINE
  5
CF
100
AcDbEntity
100
AcDbLine
  8
Screw
 62
256
370
-1
  6
ByLayer
 10
2.3900000000000001
 20
2.1025
 30
0.0
 11
2.3900000000000001
 21
2.2275
 31
0.0
  0
LINE
  5
D0
100
AcDbEntity
100
AcDbLine
  8
Screw
 62
256
370
-1
  6
ByLayer
 10
2.4875000000000003
 20
2.2275
 30
0.0
 11
2.4875000000000003
 21
3.4775
 31
0.0
  0
LINE
  5
D1
100
AcDbEntity
100
AcDbLine
  8
Screw
 62
256
370
-1
  6
ByLayer
 10
2.6724999999999999
 20
2.2275
 30
0.0
 11
2.6724999999999999
 21
3.4775
 31
0.0
  0
LINE
  5
D2
100
AcDbEntity
100
AcDbLine
  8
Screw
 62
256
370
-1
  6
ByLayer
 10
2.4875000000000003
 20
3.4775
 30
0.0
 11
2.6724999999999999
 21
3.4775
 31
0.0
  0
LEADER
  5
D3
  8
UHMWDim
 62
256
370
-1
  6
ByLayer
100
AcDbEntity
100
AcDbLeader
  3
Standard
 71
1
 72
0
 73
3
 74
0
 75
0
 40
1.0
 41
10.0
 76
3
 10
2.7765750933332374
 20
3.2345347737018195
 10
2.9000000000000004
 20
3.3999999999999999
 10
3.1000000000000001
 20
3.3999999999999999
  0
DIMENSION
  5
D4
100
AcDbEntity
  8
UHMWDim
 62
256
370
-1
  6
ByLayer
100
AcDbDimension
 10
2.7830000000000004
 20
2.0
 30
0.0
 11
2.5800000000000001
 21
2.0750000000000002
 31
0.0
 70
0
 71
5
 72
1
 41
1.0
 42
0.0
  1

  3
Standard
100
AcDbAlignedDimension
 13
2.3769999999999998
 23
2.5255000000000001
 33
0.0
 14
2.7830000000000004
 24
2.5255000000000001
 34
0.0
 50
0.0
100
AcDbRotatedDimension
  0
DIMENSION
  5
D5
100
AcDbEntity
  8
UHMWDim
 62
256
370
-1
  6
ByLayer
100
AcDbDimension
 10
2.9550000000000001
 20
1.7
 30
0.0
 11
2.5800000000000001
 21
1.7749999999999999
 31
0.0
 70
0
 71
5
 72
1
 41
1.0
 42
0.0
  1

  3
Standard
100
AcDbAlignedDimension
 13
2.2050000000000001
 23
2.2774999999999999
 33
0.0
 14
2.9550000000000001
 24
2.2774999999999999
 34
0.0
 50
0.0
100
AcDbRotatedDimension
  0
DIMENSION
  5
D6
100
AcDbEntity
  8
UHMWDim
 62
256
370
-1
  6
ByLayer
100
AcDbDimension
 10
2.6724999999999999
 20
3.6000000000000001
 30
0.0
 11
2.5800000000000001
 21
3.6750000000000003
 31
0.0
 70
0
 71
5
 72
1
 41
1.0
 42
0.0
  1

  3
Standard
100
AcDbAlignedDimension
 13
2.4875000000000003
 23
3.2290561220938132
 33
0.0
 14
2.6724999999999999
 24
3.2290561220938132
 34
0.0
 50
0.0
100
AcDbRotatedDimension
  0
LINE
  5
D7
100
AcDbEntity
100
AcDbLine
  8
UHMW
 62
256
370
-1
  6
DASHED2
 10
2.4875000000000003
 20
2.2774999999999999
 30
0.0
 11
2.4875000000000003
 21
3.2290561220938132
 31
0.0
  0
LINE
  5
D8
100
AcDbEntity
100
AcDbLine
  8
UHMW
 62
256
370
-1
  6
DASHED2
 10
2.6724999999999999
 20
2.2774999999999999
 30
0.0
 11
2.6724999999999999
 21
3.2290561220938132
 31
0.0
  0
MTEXT
  5
D9
100
AcDbEntity
100
AcDbMText
  8
UHMWDim
 62
256
370
-1
  6
ByLayer
 10
3.1461864406779685
 20
3.653771186440681
 30
0.0
 40
0.1
 41
100.0
 71
1
 72
2
  1
Radius\~for\PRocket\~Body
  7
normallatin1
 50
0.0
 73
1
 44
1.0
  0
LINE
  5
DA
100
AcDbEntity
100
AcDbLine
  8
UHMW
 62
256
370
-1
  6
ByLayer
 10
2.2050000000000001
 20
2.7654999999999994
 30
0.0
 11
2.2050000000000001
 21
3.2531881602870789
 31
0.0
  0
LINE
  5
DB
100
AcDbEntity
100
AcDbLine
  8
UHMW
 62
256
370
-1
  6
ByLayer
 10
2.9550000000000001
 20
2.7654999999999994
 30
0.0
 11
2.9550000000000001
 21
3.2531881602870789
 31
0.0
  0
DIMENSION
  5
DC
100
AcDbEntity
  8
UHMWDim
 62
256
370
-1
  6
ByLayer
100
AcDbDimension
 10
2.0
 20
3.2531881602870789
 30
0.0
 11
1.925
 21
3.0093440801435394
 31
0.0
 70
0
 71
5
 72
1
 41
1.0
 42
0.0
  1

  3
Standard
100
AcDbAlignedDimension
 13
2.2050000000000001
 23
2.7654999999999994
 33
0.0
 14
2.2050000000000001
 24
3.2531881602870789
 34
0.0
 50
90.0
100
AcDbRotatedDimension
  0
DIMENSION
  5
DD
100
AcDbEntity
  8
UHMWDim
 62
256
370
-1
  6
ByLayer
100
AcDbDimension
 10
3.2000000000000002
 20
2.7654999999999994
 30
0.0
 11
3.125
 21
2.6454999999999997
 31
0.0
 70
0
 71
5
 72
1
 41
1.0
 42
0.0
  1
0.240
  3
Standard
100
AcDbAlignedDimension
 13
2.9550000000000001
 23
2.5255000000000001
 33
0.0
 14
2.9550000000000001
 24
2.7654999999999994
 34
0.0
 50
90.0
100
AcDbRotatedDimension
  0
LINE
  5
DE
100
AcDbEntity
100
AcDbLine
  8
UHMW
 62
256
370
-1
  6
ByLayer
 10
2.7830000000000004
 20
2.5255000000000001
 30
0.0
 11
2.7830000000000004
 21
2.7404999999999995
 31
0.0
  0
LINE
  5
DF
100
AcDbEntity
100
AcDbLine
  8
UHMW
 62
256
370
-1
  6
ByLayer
 10
2.9550000000000001
 20
2.7654999999999994
 30
0.0
 11
2.8080000000000003
 21
2.7654999999999994
 31
0.0
  0
ARC
  5
E0
100
AcDbEntity
  8
UHMW
 62
256
370
-1
  6
ByLayer
100
AcDbCircle
 10
2.8080000000000003
 20
2.7404999999999995
 30
0.0
 40
0.025
100
AcDbArc
 50
90.0
 51
180.0
  0
LINE
  5
E1
100
AcDbEntity
100
AcDbLine
  8
UHMW
 62
256
370
-1
  6
ByLayer
 10
2.3769999999999998
 20
2.5255000000000001
 30
0.0
 11
2.3769999999999998
 21
2.7404999999999995
 31
0.0
  0
LINE
  5
E2
100
AcDbEntity
100
AcDbLine
  8
UHMW
 62
256
370
-1
  6
ByLayer
 10
2.3519999999999999
 20
2.7654999999999994
 30
0.0
 11
2.2050000000000001
 21
2.7654999999999994
 31
0.0
  0
ARC
  5
E3
100
AcDbEntity
  8
UHMW
 62
256
370
-1
  6
ByLayer
100
AcDbCircle
 10
2.3519999999999999
 20
2.7404999999999995
 30
0.0
 40
0.025
100
AcDbArc
 50
0.0
 51
90.0
  0
LINE
  5
E4
100
AcDbEntity
100
AcDbLine
  8
UHMW
 62
256
370
-1
  6
ByLayer
 10
2.3519999999999999
 20
2.7654999999999994
 30
0.0
 11
2.8080000000000003
 21
2.7654999999999994
 31
0.0
  0
DIMENSION
  5
E5
100
AcDbEntity
  8
UHMWDim
 62
256
370
-1
  6
ByLayer
100
AcDbDimension
 10
2.3519999999999999
 20
2.7404999999999995
 30
0.0
 11
2.0982046957668019
 21
2.5993440937205032
 31
0.0
 70
4
 71
5
 72
1
 41
1.0
 42
0.0
  1

  3
Standard
100
AcDbRadialDimension
 15
2.3340312437863049
 25
2.7231182912194223
 35
0.0
 40
0.0
  0
ARC
  5
E6
100
AcDbEntity
  8
UHMW
 62
1
420
16711680
370
-1
  6
CONTINUOUS
100
AcDbCircle
 10
2.5800000000000001
 20
5.9775
 30
0.0
 40
2.75
100
AcDbArc
 50
262.162520236915725
 51
277.837479763084275
  0
DIMENSION
  5
E7
100
AcDbEntity
  8
UHMWDim
 62
256
370
-1
  6
ByLayer
100
AcDbDimension
 10
3.5
 20
2.5255000000000001
 30
0.0
 11
3.4249999999999998
 21
2.4015
 31
0.0
 70
0
 71
5
 72
1
 41
1.0
 42
0.0
  1

  3
Standard
100
AcDbAlignedDimension
 13
2.9550000000000001
 23
2.2774999999999999
 33
0.0
 14
2.9550000000000001
 24
2.5255000000000001
 34
0.0
 50
90.0
100
AcDbRotatedDimension
  0
DIMENSION
  5
E8
100
AcDbEntity
  8
UHMWDim
 62
256
370
-1
  6
ByLayer
100
AcDbDimension
 10
3.8000000000000007
 20
3.2531881602870789
 30
0.0
 11
3.7250000000000005
 21
2.7653440801435396
 31
0.0
 70
0
 71
5
 72
1
 41
1.0
 42
0.0
  1

  3
Standard
100
AcDbAlignedDimension
 13
2.9550000000000001
 23
2.2774999999999999
 33
0.0
 14
2.9550000000000001
 24
3.2531881602870789
 34
0.0
 50
90.0
100
AcDbRotatedDimension
  0
LINE
  5
E9
100
AcDbEntity
100
AcDbLine
  8
Fins
 62
256
370
-1
  6
ByLayer
 10
-5.9715726349748097
 20
-2.4414901135023306
 30
0.0
 11
0.5702953841717475
 21
4.1003779056442244
 31
0.0
  0
LINE
  5
EA
100
AcDbEntity
100
AcDbLine
  8
Fins
 62
256
370
-1
  6
ByLayer
 10
-5.8389901135023328
 20
-2.5740726349748084
 30
0.0
 11
0.7028779056442245
 21
3.967795384171747
 31
0.0
  0
LINE
  5
EB
100
AcDbEntity
100
AcDbLine
  8
Fins
 62
256
370
-1
  6
ByLayer
 10
11.131572634974809
 20
-2.4414901135023324
 30
0.0
 11
4.5897046158282553
 21
4.1003779056442227
 31
0.0
  0
LINE
  5
EC
100
AcDbEntity
100
AcDbLine
  8
Fins
 62
256
370
-1
  6
ByLayer
 10
10.9989901135023302
 20
-2.5740726349748102
 30
0.0
 11
4.4571220943557766
 21
3.9677953841717444
 31
0.0
  0
LINE
  5
ED
100
AcDbEntity
100
AcDbLine
  8
0
 62
256
370
-1
  6
ByLayer
 10
2.5800000000000001
 20
-1.9219295603287572
 30
0.0
 11
2.5800000000000001
 21
5.9775
 31
0.0
  0
LINE
  5
EE
100
AcDbEntity
100
AcDbLine
  8
Vee
 62
256
370
-1
  6
ByLayer
 10
1.0773980899785864
 20
0.7783252147247754
 30
0.0
 11
1.1657864376269051
 21
0.866713562373094
 31
0.0
  0
LINE
  5
EF
100
AcDbEntity
100
AcDbLine
  8
Vee
 62
256
370
-1
  6
ByLayer
 10
4.0826019100214141
 20
0.7783252147247752
 30
0.0
 11
3.9942135623730954
 21
0.8667135623730937
 31
0.0
  0
LINE
  5
F0
100
AcDbEntity
100
AcDbLine
  8
Vee
 62
256
370
-1
  6
ByLayer
 10
2.5800000000000001
 20
-0.5475000000000012
 30
0.0
 11
1.1657864376269051
 21
0.866713562373094
 31
0.0
  0
LINE
  5
F1
100
AcDbEntity
100
AcDbLine
  8
Vee
 62
256
370
-1
  6
ByLayer
 10
2.5800000000000001
 20
-0.5475000000000012
 30
0.0
 11
3.9942135623730954
 21
0.8667135623730937
 31
0.0
  0
LINE
  5
F2
100
AcDbEntity
100
AcDbLine
  8
VeeMate
 62
256
370
-1
  6
ByLayer
 10
2.5800000000000005
 20
-0.9010533905932763
 30
0.0
 11
1.0773980899785864
 21
0.6015485194281377
 31
0.0
  0
LINE
  5
F3
100
AcDbEntity
100
AcDbLine
  8
VeeMate
 62
256
370
-1
  6
ByLayer
 10
1.0773980899785864
 20
0.6015485194281377
 30
0.0
 11
1.1657864376269051
 21
0.6899368670764563
 31
0.0
  0
LINE
  5
F4
100
AcDbEntity
100
AcDbLine
  8
VeeMate
 62
256
370
-1
  6
ByLayer
 10
2.5800000000000005
 20
-0.9010533905932763
 30
0.0
 11
4.0826019100214141
 21
0.6015485194281375
 31
0.0
  0
LINE
  5
F5
100
AcDbEntity
100
AcDbLine
  8
VeeMate
 62
256
370
-1
  6
ByLayer
 10
4.0826019100214141
 20
0.6015485194281375
 30
0.0
 11
3.9942135623730954
 21
0.689936867076456
 31
0.0
  0
LINE
  5
F6
100
AcDbEntity
100
AcDbLine
  8
VeeMate
 62
256
370
-1
  6
ByLayer
 10
2.5800000000000001
 20
-0.724276695296639
 30
0.0
 11
1.1657864376269051
 21
0.6899368670764563
 31
0.0
  0
LINE
  5
F7
100
AcDbEntity
100
AcDbLine
  8
VeeMate
 62
256
370
-1
  6
ByLayer
 10
2.5800000000000001
 20
-0.724276695296639
 30
0.0
 11
3.9942135623730954
 21
0.689936867076456
 31
0.0
  0
LINE
  5
F8
100
AcDbEntity
100
AcDbLine
  8
Vee
 62
256
370
-1
  6
ByLayer
 10
2.5800000000000001
 20
-0.724276695296638
 30
0.0
 11
4.0826019100214141
 21
0.7783252147247752
 31
0.0
  0
LINE
  5
F9
100
AcDbEntity
100
AcDbLine
  8
Vee
 62
256
370
-1
  6
ByLayer
 10
2.5800000000000001
 20
-0.724276695296638
 30
0.0
 11
1.0773980899785867
 21
0.7783252147247757
 31
0.0
  0
LINE
  5
FA
100
AcDbEntity
100
AcDbLine
  8
0
 62
256
370
-1
  6
ByLayer
 10
-4.6699999999999999
 20
-1.4531795603287543
 30
0.0
 11
9.8300000000000001
 21
-1.4531795603287601
 31
0.0
  0
CIRCLE
  5
FB
100
AcDbEntity
100
AcDbCircle
  8
Tower
 62
256
370
-1
  6
ByLayer
 10
-3.0449999999999999
 20
-3.069296083845571
 30
0.0
 40
0.625
  0
CIRCLE
  5
FC
100
AcDbEntity
100
AcDbCircle
  8
Tower
 62
256
370
-1
  6
ByLayer
 10
8.2050000000000001
 20
-3.0692960838455754
 30
0.0
 40
0.625
  0
CIRCLE
  5
FD
100
AcDbEntity
100
AcDbCircle
  8
Tower
 62
256
370
-1
  6
ByLayer
 10
2.5799999999999983
 20
-12.8120818764204998
 30
0.0
 40
0.625
  0
LINE
  5
FE
100
AcDbEntity
100
AcDbLine
  8
Tower
 62
256
370
-1
  6
ByLayer
 10
-2.439846352155091
 20
-2.913046083845571
 30
0.0
 11
7.5998463521550912
 21
-2.9130460838455754
 31
0.0
  0
LINE
  5
FF
100
AcDbEntity
100
AcDbLine
  8
Tower
 62
256
370
-1
  6
ByLayer
 10
-2.439846352155091
 20
-3.225546083845571
 30
0.0
 11
7.5998463521550912
 21
-3.225546083845575
 31
0.0
  0
LINE
  5
100
100
AcDbEntity
100
AcDbLine
  8
Tower
 62
256
370
-1
  6
ByLayer
 10
-2.607106706736217
 20
-3.5152495160721
 30
0.0
 11
2.4127396454188652
 21
-12.2098784441939916
 31
0.0
  0
LINE
  5
101
100
AcDbEntity
100
AcDbLine
  8
Tower
 62
256
370
-1
  6
ByLayer
 10
-2.8777396454188544
 20
-3.6714995160721
 30
0.0
 11
2.1421067067362163
 21
-12.3661284441939721
 31
0.0
  0
LINE
  5
102
100
AcDbEntity
100
AcDbLine
  8
Tower
 62
256
370
-1
  6
ByLayer
 10
2.747260354581134
 20
-12.2098784441939863
 30
0.0
 11
7.7671067067362252
 21
-3.5152495160720894
 31
0.0
  0
LINE
  5
103
100
AcDbEntity
100
AcDbLine
  8
Tower
 62
256
370
-1
  6
ByLayer
 10
3.0178932932637714
 20
-12.366128444193988
 30
0.0
 11
8.0377396454188634
 21
-3.6714995160720894
 31
0.0
  0
LINE
  5
104
100
AcDbEntity
100
AcDbLine
  8
MountingPlate
 62
256
370
-1
  6
ByLayer
 10
-4.2949999999999999
 20
-2.4442960838455701
 30
0.0
 11
-4.2949999999999999
 21
-2.3192960838455701
 31
0.0
  0
LINE
  5
105
100
AcDbEntity
100
AcDbLine
  8
MountingPlate
 62
256
370
-1
  6
ByLayer
 10
9.4550000000000001
 20
-2.4442960838455674
 30
0.0
 11
9.4550000000000001
 21
-2.3192960838455745
 31
0.0
  0
LINE
  5
106
100
AcDbEntity
100
AcDbLine
  8
MountingPlate
 62
256
370
-1
  6
ByLayer
 10
-4.2949999999999999
 20
-2.4442960838455701
 30
0.0
 11
9.4550000000000001
 21
-2.4442960838455763
 31
0.0
  0
LINE
  5
107
100
AcDbEntity
100
AcDbLine
  8
MountingPlate
 62
256
370
-1
  6
ByLayer
 10
-4.2949999999999999
 20
-2.3192960838455701
 30
0.0
 11
9.4550000000000001
 21
-2.3192960838455763
 31
0.0
  0
MTEXT
  5
108
100
AcDbEntity
100
AcDbMText
  8
Notes
 62
256
370
-1
  6
ByLayer
 10
-4.6030407790781647
 20
10.622401797872687
 30
0.0
 40
0.2
 41
100.0
 71
1
 72
0
  1
Notes:\P-Use\~10-32,\~1.5"\~long,\~pan-head\~stainless\~steel\~screw\~for\~launch\~lug\~scew.\P-Drill\~hole\~of\~launch\~lug\~with\~#10\~clearance\~drill
  7
standard
 50
0.0
 73
1
 44
1.0
  0
ENDSEC
  0
SECTION
  2
OBJECTS
  0
DICTIONARY
  5
C
100
AcDbDictionary
280
0
281
1
  3
ACAD_GROUP
350
D
  3
ACAD_LAYOUT
350
1A
  3
ACAD_MLINESTYLE
350
17
  3
ACAD_PLOTSETTINGS
350
19
  3
ACAD_PLOTSTYLENAME
350
E
  3
AcDbVariableDictionary
350
109
  0
DICTIONARY
  5
D
100
AcDbDictionary
280
0
281
1
  0
ACDBDICTIONARYWDFLT
  5
E
100
AcDbDictionary
281
1
  3
Normal
350
F
100
AcDbDictionaryWithDefault
340
F
  0
ACDBPLACEHOLDER
  5
F
  0
DICTIONARY
  5
17
100
AcDbDictionary
280
0
281
1
  3
Standard
350
18
  0
MLINESTYLE
  5
18
100
AcDbMlineStyle
  2
STANDARD
 70
0
  3

 62
256
 51
90.0
 52
90.0
 71
2
 49
0.5
 62
256
  6
BYLAYER
 49
-0.5
 62
256
  6
BYLAYER
  0
DICTIONARY
  5
19
100
AcDbDictionary
280
0
281
1
  0
DICTIONARY
  5
1A
100
AcDbDictionary
281
1
  3
Layout1
350
1E
  3
Layout2
350
26
  3
Model
350
22
  0
LAYOUT
  5
1E
100
AcDbPlotSettings
  1

  2
C:\Program Files\AutoCAD 2002\plotters\DWF ePlot (optimized for plotting).pc3
  4

  6

 40
0.0
 41
0.0
 42
0.0
 43
0.0
 44
0.0
 45
0.0
 46
0.0
 47
0.0
 48
0.0
 49
0.0
140
0.0
141
0.0
142
1.0
143
1.0
 70
688
 72
0
 73
0
 74
5
  7

 75
16
147
1.0
148
0.0
149
0.0
100
AcDbLayout
  1
Layout1
 70
1
 71
1
 10
0.0
 20
0.0
 11
420.0
 21
297.0
 12
0.0
 22
0.0
 32
0.0
 14
100000000000000000000.0
 24
100000000000000000000.0
 34
100000000000000000000.0
 15
-100000000000000000000.0
 25
-100000000000000000000.0
 35
-100000000000000000000.0
146
0.0
 13
0.0
 23
0.0
 33
0.0
 16
1.0
 26
0.0
 36
0.0
 17
0.0
 27
1.0
 37
0.0
 76
0
330
1B
  0
LAYOUT
  5
22
100
AcDbPlotSettings
  1

  2
C:\Program Files\AutoCAD 2002\plotters\DWF ePlot (optimized for plotting).pc3
  4

  6

 40
0.0
 41
0.0
 42
0.0
 43
0.0
 44
0.0
 45
0.0
 46
0.0
 47
0.0
 48
0.0
 49
0.0
140
0.0
141
0.0
142
1.0
143
1.0
 70
1712
 72
0
 73
0
 74
0
  7

 75
0
147
1.0
148
0.0
149
0.0
100
AcDbLayout
  1
Model
 70
1
 71
0
 10
0.0
 20
0.0
 11
12.0
 21
9.0
 12
0.0
 22
0.0
 32
0.0
 14
0.0
 24
0.0
 34
0.0
 15
0.0
 25
0.0
 35
0.0
146
0.0
 13
0.0
 23
0.0
 33
0.0
 16
1.0
 26
0.0
 36
0.0
 17
0.0
 27
1.0
 37
0.0
 76
0
330
1F
  0
LAYOUT
  5
26
100
AcDbPlotSettings
  1

  2
C:\Program Files\AutoCAD 2002\plotters\DWF ePlot (optimized for plotting).pc3
  4

  6

 40
0.0
 41
0.0
 42
0.0
 43
0.0
 44
0.0
 45
0.0
 46
0.0
 47
0.0
 48
0.0
 49
0.0
140
0.0
141
0.0
142
1.0
143
1.0
 70
688
 72
0
 73
0
 74
5
  7

 75
16
147
1.0
148
0.0
149
0.0
100
AcDbLayout
  1
Layout2
 70
1
 71
2
 10
0.0
 20
0.0
 11
12.0
 21
9.0
 12
0.0
 22
0.0
 32
0.0
 14
0.0
 24
0.0
 34
0.0
 15
0.0
 25
0.0
 35
0.0
146
0.0
 13
0.0
 23
0.0
 33
0.0
 16
1.0
 26
0.0
 36
0.0
 17
0.0
 27
1.0
 37
0.0
 76
0
330
23
  0
DICTIONARY
  5
109
100
AcDbDictionary
281
1
  3
DIMASSOC
350
10B
  3
HIDETEXT
350
10A
  0
DICTIONARYVAR
  5
10A
100
DictionaryVariables
280
0
  1
2
  0
DICTIONARYVAR
  5
10B
100
DictionaryVariables
280
0
  1
1
  0
ENDSEC
  0
EOF
