  0
SECTION
  2
HEADER
  9
$LIMMIN
 10
0.000000
 20
0.000000
  9
$LIMMAX
 10
30.249999
 20
21.800000
  9
$EXTMIN
 10
0.000000
 20
0.000000
  9
$EXTMAX
 10
30.249999
 20
21.800000
  9
$ANGBASE
 50
0.000000
  9
$ANGDIR
 70
0
  9
$INSUNITS
 70
1
  9
$DIMALT
 70
1
  9
$DIMLUNIT
 70
2
  9
$DIMASZ
 40
0.125000
  9
$DIMTXT
 40
0.200000
  9
$DIMRND
 40
0.001000
  9
$DIMEXE
 40
0.083333
  9
$DIMEXO
 40
0.083333
  9
$DIMAUNIT
 70
0
  9
$DIMADEC
 70
2
  9
$GRIDUNIT
 10
0.001000
 20
0.001000
  9
$PLIMMIN
 10
-0.000001
 20
-0.000004
  9
$PLIMMAX
 10
10.999999
 20
8.499996
  9
$PSVPSCALE
 40
0.333333
  0
ENDSEC
  0
SECTION
  2
TABLES
  0
TABLE
  2
LTYPE
 70
     1
  0
LTYPE
  2
CONTINUOUS
 70
    64
  3
Ausgez
 72
    65
 73
  0
 40
0.000000
  0
ENDTAB
  0
TABLE
  2
LAYER
 70
     1
  0
LAYER
  2
default
 70
    64
 62
7
  6
CONTINUOUS
  0
LAYER
  2
Plate
 70
    64
 62
7
  6
CONTINUOUS
  0
LAYER
  2
Dimension
 70
    64
 62
7
  6
CONTINUOUS
  0
LAYER
  2
Wrong
 70
    64
 62
221
  6
CONTINUOUS
  0
LAYER
  2
Text
 70
    64
 62
7
  6
CONTINUOUS
  0
ENDTAB
  0
ENDSEC
  0
SECTION
  2
BLOCKS
  0
ENDSEC
  0
SECTION
  2
ENTITIES
  0
LINE
  8
default
  6
CONTINUOUS
 10
4.500000
 20
11.000000
 11
27.500000
 21
11.000000
 39
0
 62
7
  0
LINE
  8
default
  6
CONTINUOUS
 10
4.500000
 20
17.500000
 11
27.500000
 21
17.500000
 39
0
 62
7
  0
LINE
  8
default
  6
CONTINUOUS
 10
5.000000
 20
18.500000
 11
5.000000
 21
10.000000
 39
0
 62
7
  0
LINE
  8
default
  6
CONTINUOUS
 10
5.000000
 20
18.500000
 11
26.000000
 21
18.500000
 39
0
 62
7
  0
LINE
  8
default
  6
CONTINUOUS
 10
26.000000
 20
18.500000
 11
26.000000
 21
10.000000
 39
0
 62
7
  0
LINE
  8
default
  6
CONTINUOUS
 10
5.000000
 20
10.000000
 11
26.000000
 21
10.000000
 39
0
 62
7
  0
LINE
  8
Plate
  6
CONTINUOUS
 10
5.000000
 20
10.000000
 11
26.000000
 21
10.000000
 39
3
 62
7
  0
LINE
  8
Plate
  6
CONTINUOUS
 10
26.000000
 20
10.000000
 11
26.000000
 21
18.500000
 39
3
 62
7
  0
LINE
  8
Plate
  6
CONTINUOUS
 10
26.000000
 20
18.500000
 11
5.000000
 21
18.500000
 39
3
 62
7
  0
LINE
  8
Plate
  6
CONTINUOUS
 10
5.000000
 20
18.500000
 11
5.000000
 21
10.000000
 39
3
 62
7
  0
CIRCLE
  8
Plate
  6
CONTINUOUS
 10
15.000000
 20
16.875000
 40
0.125250
 39
3
 62
7
  0
CIRCLE
  8
Plate
  6
CONTINUOUS
 10
15.000000
 20
11.625000
 40
0.125250
 39
3
 62
7
  0
DIMENSION
  8
Dimension
  6
CONTINUOUS
  1
;;
 10
4.000000
 20
10.000000
 13
5.000000
 23
10.000000
 14
5.000000
 24
18.500000
 50
90.000000
 70
0
 39
1
 62
7
  0
DIMENSION
  8
Dimension
  6
CONTINUOUS
  1
;;
 10
5.000000
 20
19.500000
 13
5.000000
 23
18.500000
 14
26.000000
 24
18.500000
 50
0.000000
 70
0
 39
1
 62
7
  0
LINE
  8
default
  6
CONTINUOUS
 10
27.500000
 20
21.440743
 11
27.500000
 21
1.512507
 39
0
 62
7
  0
LINE
  8
Plate
  6
CONTINUOUS
 10
5.000000
 20
8.125000
 11
5.000000
 21
7.500000
 39
3
 62
7
  0
LINE
  8
Plate
  6
CONTINUOUS
 10
5.000000
 20
7.500000
 11
26.000000
 21
7.500000
 39
3
 62
7
  0
LINE
  8
Plate
  6
CONTINUOUS
 10
26.000000
 20
8.125000
 11
26.000000
 21
7.500000
 39
3
 62
7
  0
LINE
  8
Plate
  6
CONTINUOUS
 10
5.000000
 20
8.125000
 11
26.000000
 21
8.125000
 39
3
 62
7
  0
LINE
  8
Plate
  6
DASH
 10
15.000000
 20
7.562500
 11
14.874750
 21
7.637758
 39
3
 62
7
  0
LINE
  8
Plate
  6
DASH
 10
14.874750
 20
8.125000
 11
14.874750
 21
7.637758
 39
3
 62
7
  0
LINE
  8
Plate
  6
DASH
 10
15.125250
 20
7.637758
 11
15.000000
 21
7.562500
 39
3
 62
7
  0
LINE
  8
Plate
  6
DASH
 10
15.125250
 20
8.125000
 11
15.125250
 21
7.637758
 39
3
 62
7
  0
DIMENSION
  8
Dimension
  6
CONTINUOUS
  1
;;
 10
4.000000
 20
7.500000
 13
5.000000
 23
7.500000
 14
5.000000
 24
8.125000
 50
90.000000
 70
0
 39
1
 62
7
  0
LINE
  8
Wrong
  6
CONTINUOUS
 10
23.375000
 20
18.000000
 11
23.375000
 21
7.000000
 39
1
 62
221
  0
LINE
  8
default
  6
CONTINUOUS
 10
5.500000
 20
7.000000
 11
29.000000
 21
7.000000
 39
0
 62
7
  0
LINE
  8
default
  6
CONTINUOUS
 10
5.500000
 20
18.000000
 11
29.000000
 21
18.000000
 39
0
 62
7
  0
LINE
  8
default
  6
CONTINUOUS
 10
5.500000
 20
2.500000
 11
29.000000
 21
2.500000
 39
0
 62
7
  0
LINE
  8
default
  6
CONTINUOUS
 10
5.500000
 20
22.209920
 11
5.500000
 21
2.500000
 39
0
 62
7
  0
LINE
  8
default
  6
CONTINUOUS
 10
5.500000
 20
14.250000
 11
27.500000
 21
14.250000
 39
0
 62
7
  0
LINE
  8
Plate
  6
CONTINUOUS
 10
27.500000
 20
18.500000
 11
28.125000
 21
18.500000
 39
3
 62
7
  0
LINE
  8
Plate
  6
CONTINUOUS
 10
28.125000
 20
18.500000
 11
28.125000
 21
10.000000
 39
3
 62
7
  0
LINE
  8
Plate
  6
CONTINUOUS
 10
27.500000
 20
10.000000
 11
28.125000
 21
10.000000
 39
3
 62
7
  0
LINE
  8
Plate
  6
CONTINUOUS
 10
27.500000
 20
18.500000
 11
27.500000
 21
10.000000
 39
3
 62
7
  0
LINE
  8
Plate
  6
DASH
 10
27.500000
 20
17.000250
 11
27.987242
 21
17.000250
 39
3
 62
7
  0
LINE
  8
Plate
  6
DASH
 10
28.062500
 20
16.875000
 11
27.987242
 21
17.000250
 39
3
 62
7
  0
LINE
  8
Plate
  6
DASH
 10
27.987242
 20
16.749750
 11
28.062500
 21
16.875000
 39
3
 62
7
  0
LINE
  8
Plate
  6
DASH
 10
27.500000
 20
16.749750
 11
27.987242
 21
16.749750
 39
3
 62
7
  0
LINE
  8
Plate
  6
DASH
 10
27.500000
 20
11.750250
 11
27.987242
 21
11.750250
 39
3
 62
7
  0
LINE
  8
Plate
  6
DASH
 10
28.062500
 20
11.625000
 11
27.987242
 21
11.750250
 39
3
 62
7
  0
LINE
  8
Plate
  6
DASH
 10
27.987242
 20
11.499750
 11
28.062500
 21
11.625000
 39
3
 62
7
  0
LINE
  8
Plate
  6
DASH
 10
27.500000
 20
11.499750
 11
27.987242
 21
11.499750
 39
3
 62
7
  0
LINE
  8
default
  6
CONTINUOUS
 10
28.500000
 20
22.845319
 11
28.500000
 21
2.659818
 39
0
 62
7
  0
DIMENSION
  8
Dimension
  6
CONTINUOUS
  1
;;
 10
30.000000
 20
16.875000
 13
28.125000
 23
16.875000
 14
28.125000
 24
11.625000
 50
90.000000
 70
0
 39
1
 62
7
  0
CIRCLE
  8
Plate
  6
DASH
 10
15.000000
 20
14.250000
 40
0.437500
 39
3
 62
7
  0
LINE
  8
Plate
  6
DASH
 10
14.562500
 20
7.875000
 11
15.437500
 21
7.875000
 39
3
 62
7
  0
LINE
  8
Plate
  6
DASH
 10
14.562500
 20
7.875000
 11
14.562500
 21
7.500000
 39
3
 62
7
  0
LINE
  8
Plate
  6
DASH
 10
15.437500
 20
7.875000
 11
15.437500
 21
7.500000
 39
3
 62
7
  0
LINE
  8
Plate
  6
DASH
 10
27.750000
 20
14.687500
 11
27.750000
 21
13.812500
 39
3
 62
7
  0
LINE
  8
Plate
  6
DASH
 10
27.750000
 20
13.812500
 11
28.125000
 21
13.812500
 39
3
 62
7
  0
LINE
  8
Plate
  6
DASH
 10
27.750000
 20
14.687500
 11
28.125000
 21
14.687500
 39
3
 62
7
  0
CIRCLE
  8
Plate
  6
CONTINUOUS
 10
15.000000
 20
14.250000
 40
0.187500
 39
3
 62
7
  0
LINE
  8
Plate
  6
DASH
 10
27.500000
 20
14.437500
 11
27.750000
 21
14.437500
 39
3
 62
7
  0
LINE
  8
Plate
  6
DASH
 10
27.500000
 20
14.062500
 11
27.750000
 21
14.062500
 39
3
 62
7
  0
LINE
  8
Plate
  6
DASH
 10
14.812500
 20
8.125000
 11
14.812500
 21
7.875000
 39
3
 62
7
  0
LINE
  8
Plate
  6
DASH
 10
15.187500
 20
8.125000
 11
15.187500
 21
7.875000
 39
3
 62
7
  0
DIMENSION
  8
Dimension
  6
CONTINUOUS
  1
ø;;
 10
15.187500
 20
15.000000
 13
15.187500
 23
14.250000
 14
14.812500
 24
14.250000
 70
1
 39
1
 62
7
  0
DIMENSION
  8
Dimension
  6
CONTINUOUS
  1
;;
 10
27.000000
 20
7.500000
 13
24.937500
 23
7.500000
 14
24.937500
 24
7.875000
 50
90.000000
 70
0
 39
1
 62
7
  0
TEXT
  8
Text
  6
CONTINUOUS
 10
5.000000
 20
5.000000
 40
0.300000
 50
0.000000
 72
0
  7
romand#0.030000#0.180000
  1
Notes:
 39
1
 62
7
  0
TEXT
  8
Text
  6
CONTINUOUS
 10
3.000000
 20
21.500000
 40
0.300000
 50
0.000000
 72
0
  7
Courier#0.030000#0.180000
  1
PSAS <www.psas.pdx.edu>
 39
0
 62
7
  0
TEXT
  8
Text
  6
CONTINUOUS
 10
3.000000
 20
21.000000
 40
0.300000
 50
0.000000
 72
0
  7
Courier#0.030000#0.180000
  1
LV2 module jig plate
 39
0
 62
7
  0
LINE
  8
Dimension
  6
DASHDOT
 10
15.000000
 20
18.000000
 11
15.000000
 21
7.000000
 39
1
 62
7
  0
LINE
  8
Dimension
  6
DASHDOT
 10
5.500000
 20
16.875000
 11
28.500000
 21
16.875000
 39
1
 62
7
  0
LINE
  8
Dimension
  6
DASHDOT
 10
5.500000
 20
14.250000
 11
28.500000
 21
14.250000
 39
1
 62
7
  0
LINE
  8
Dimension
  6
DASHDOT
 10
5.500000
 20
11.625000
 11
28.500000
 21
11.625000
 39
1
 62
7
  0
LINE
  8
default
  6
CONTINUOUS
 10
7.050000
 20
17.500000
 11
7.050000
 21
11.000000
 39
0
 62
221
  0
LINE
  8
default
  6
CONTINUOUS
 10
6.050000
 20
17.500000
 11
6.050000
 21
11.000000
 39
0
 62
221
  0
CIRCLE
  8
Plate
  6
CONTINUOUS
 10
6.550000
 20
16.875000
 40
0.125250
 39
3
 62
7
  0
CIRCLE
  8
Plate
  6
CONTINUOUS
 10
6.550000
 20
11.625000
 40
0.125250
 39
3
 62
7
  0
LINE
  8
Plate
  6
DASH
 10
6.675250
 20
7.637758
 11
6.550000
 21
7.562500
 39
3
 62
7
  0
LINE
  8
Plate
  6
DASH
 10
6.675250
 20
8.125000
 11
6.675250
 21
7.637758
 39
3
 62
7
  0
LINE
  8
Plate
  6
DASH
 10
6.550000
 20
7.562500
 11
6.424750
 21
7.637758
 39
3
 62
7
  0
LINE
  8
Plate
  6
DASH
 10
6.424750
 20
8.125000
 11
6.424750
 21
7.637758
 39
3
 62
7
  0
LINE
  8
Wrong
  6
CONTINUOUS
 10
6.675000
 20
17.500000
 11
6.675000
 21
7.000000
 39
1
 62
221
  0
DIMENSION
  8
Dimension
  6
CONTINUOUS
  1
ø0.25;-.000;+.001
 10
6.675250
 20
15.500000
 13
6.675250
 23
16.875000
 14
6.424750
 24
16.875000
 70
1
 39
1
 62
7
  0
CIRCLE
  8
Plate
  6
DASH
 10
6.550000
 20
14.250000
 40
0.437500
 39
3
 62
7
  0
LINE
  8
Plate
  6
DASH
 10
6.112500
 20
7.875000
 11
6.987500
 21
7.875000
 39
3
 62
7
  0
LINE
  8
Plate
  6
DASH
 10
6.112500
 20
7.875000
 11
6.112500
 21
7.500000
 39
3
 62
7
  0
LINE
  8
Plate
  6
DASH
 10
6.987500
 20
7.875000
 11
6.987500
 21
7.500000
 39
3
 62
7
  0
CIRCLE
  8
Plate
  6
CONTINUOUS
 10
6.550000
 20
14.250000
 40
0.187500
 39
3
 62
7
  0
LINE
  8
Plate
  6
DASH
 10
6.362500
 20
8.125000
 11
6.362500
 21
7.875000
 39
3
 62
7
  0
LINE
  8
Plate
  6
DASH
 10
6.737500
 20
8.125000
 11
6.737500
 21
7.875000
 39
3
 62
7
  0
LINE
  8
Dimension
  6
DASHDOT
 10
6.550000
 20
17.500000
 11
6.550000
 21
7.000000
 39
1
 62
7
  0
LINE
  8
default
  6
CONTINUOUS
 10
23.950000
 20
17.500000
 11
23.950000
 21
11.000000
 39
0
 62
221
  0
CIRCLE
  8
Plate
  6
CONTINUOUS
 10
23.450000
 20
16.875000
 40
0.125250
 39
3
 62
7
  0
CIRCLE
  8
Plate
  6
CONTINUOUS
 10
23.450000
 20
11.625000
 40
0.125250
 39
3
 62
7
  0
LINE
  8
Plate
  6
DASH
 10
23.450000
 20
7.562500
 11
23.324750
 21
7.637758
 39
3
 62
7
  0
LINE
  8
Plate
  6
DASH
 10
23.324750
 20
8.125000
 11
23.324750
 21
7.637758
 39
3
 62
7
  0
LINE
  8
Plate
  6
DASH
 10
23.575250
 20
7.637758
 11
23.450000
 21
7.562500
 39
3
 62
7
  0
LINE
  8
Plate
  6
DASH
 10
23.575250
 20
8.125000
 11
23.575250
 21
7.637758
 39
3
 62
7
  0
CIRCLE
  8
Plate
  6
DASH
 10
23.450000
 20
14.250000
 40
0.437500
 39
3
 62
7
  0
LINE
  8
Plate
  6
DASH
 10
23.012500
 20
7.875000
 11
23.887500
 21
7.875000
 39
3
 62
7
  0
LINE
  8
Plate
  6
DASH
 10
23.012500
 20
7.875000
 11
23.012500
 21
7.500000
 39
3
 62
7
  0
LINE
  8
Plate
  6
DASH
 10
23.887500
 20
7.875000
 11
23.887500
 21
7.500000
 39
3
 62
7
  0
CIRCLE
  8
Plate
  6
CONTINUOUS
 10
23.450000
 20
14.250000
 40
0.187500
 39
3
 62
7
  0
LINE
  8
Plate
  6
DASH
 10
23.262500
 20
8.125000
 11
23.262500
 21
7.875000
 39
3
 62
7
  0
LINE
  8
Plate
  6
DASH
 10
23.637500
 20
8.125000
 11
23.637500
 21
7.875000
 39
3
 62
7
  0
LINE
  8
Dimension
  6
DASHDOT
 10
23.450000
 20
18.000000
 11
23.450000
 21
7.000000
 39
1
 62
7
  0
LINE
  8
default
  6
CONTINUOUS
 10
25.050000
 20
17.500000
 11
25.050000
 21
11.000000
 39
0
 62
221
  0
CIRCLE
  8
Plate
  6
CONTINUOUS
 10
24.550000
 20
16.875000
 40
0.125250
 39
3
 62
7
  0
CIRCLE
  8
Plate
  6
CONTINUOUS
 10
24.550000
 20
11.625000
 40
0.125250
 39
3
 62
7
  0
LINE
  8
Plate
  6
DASH
 10
24.550000
 20
7.562500
 11
24.424750
 21
7.637758
 39
3
 62
7
  0
LINE
  8
Plate
  6
DASH
 10
24.424750
 20
8.125000
 11
24.424750
 21
7.637758
 39
3
 62
7
  0
LINE
  8
Plate
  6
DASH
 10
24.675250
 20
7.637758
 11
24.550000
 21
7.562500
 39
3
 62
7
  0
LINE
  8
Plate
  6
DASH
 10
24.675250
 20
8.125000
 11
24.675250
 21
7.637758
 39
3
 62
7
  0
LINE
  8
Wrong
  6
CONTINUOUS
 10
24.675000
 20
18.000000
 11
24.675000
 21
7.000000
 39
1
 62
221
  0
CIRCLE
  8
Plate
  6
DASH
 10
24.550000
 20
14.250000
 40
0.437500
 39
3
 62
7
  0
LINE
  8
Plate
  6
DASH
 10
24.112500
 20
7.875000
 11
24.987500
 21
7.875000
 39
3
 62
7
  0
LINE
  8
Plate
  6
DASH
 10
24.112500
 20
7.875000
 11
24.112500
 21
7.500000
 39
3
 62
7
  0
LINE
  8
Plate
  6
DASH
 10
24.987500
 20
7.875000
 11
24.987500
 21
7.500000
 39
3
 62
7
  0
CIRCLE
  8
Plate
  6
CONTINUOUS
 10
24.550000
 20
14.250000
 40
0.187500
 39
3
 62
7
  0
LINE
  8
Plate
  6
DASH
 10
24.362500
 20
8.125000
 11
24.362500
 21
7.875000
 39
3
 62
7
  0
LINE
  8
Plate
  6
DASH
 10
24.737500
 20
8.125000
 11
24.737500
 21
7.875000
 39
3
 62
7
  0
LINE
  8
Dimension
  6
DASHDOT
 10
24.550000
 20
18.000000
 11
24.550000
 21
7.000000
 39
1
 62
7
  0
DIMENSION
  8
Dimension
  6
CONTINUOUS
  1
;;
 10
6.550000
 20
12.500000
 13
6.550000
 23
11.625000
 14
15.000000
 24
11.625000
 50
0.000000
 70
0
 39
0
 62
7
  0
DIMENSION
  8
Dimension
  6
CONTINUOUS
  1
;;
 10
15.000000
 20
12.500000
 13
15.000000
 23
11.625000
 14
23.450000
 24
11.625000
 50
0.000000
 70
0
 39
0
 62
7
  0
DIMENSION
  8
Dimension
  6
CONTINUOUS
  1
;;
 10
23.450000
 20
12.500000
 13
23.450000
 23
11.625000
 14
24.550000
 24
11.625000
 50
0.000000
 70
0
 39
0
 62
7
  0
TEXT
  8
Text
  6
CONTINUOUS
 10
9.500000
 20
21.000000
 40
0.300000
 50
0.000000
 72
0
  7
Courier#0.030000#0.180000
  1
v1.1  2/28/03
 39
1
 62
7
  0
TEXT
  8
Text
  6
CONTINUOUS
 10
21.500000
 20
21.000000
 40
0.300000
 50
0.000000
 72
0
  7
Courier#0.030000#0.180000
  1
Dimensions in inches
 39
1
 62
7
  0
TEXT
  8
Text
  6
CONTINUOUS
 10
5.000000
 20
2.000000
 40
0.300000
 50
0.000000
 72
0
  7
romand#0.030000#0.180000
  1
The holes for the four holding bolts are counterbored from the bottom to recess the bolt heads. The counterbore dimensions given are minimum requirements.
 39
1
 62
7
  0
TEXT
  8
Text
  6
CONTINUOUS
 10
5.000000
 20
3.520000
 40
0.300000
 50
0.000000
 72
0
  7
romand#0.030000#0.180000
  1
The eight 1/4 inch holes are for locating pins which are intended to be removed and inserted by hand, or with gentle tapping
 39
1
 62
7
  0
TEXT
  8
Text
  6
CONTINUOUS
 10
5.000000
 20
4.060000
 40
0.300000
 50
0.000000
 72
0
  7
romand#0.030000#0.180000
  1
Plate thickness in not critical
 39
1
 62
7
  0
TEXT
  8
Text
  6
CONTINUOUS
 10
5.000000
 20
4.480000
 40
0.300000
 50
0.000000
 72
0
  7
romand#0.030000#0.180000
  1
Material is Aluminum 6061-T6 or similar
 39
1
 62
7
  0
TEXT
  8
Text
  6
CONTINUOUS
 10
5.000000
 20
2.540000
 40
0.300000
 50
0.000000
 72
0
  7
romand#0.030000#0.180000
  1
1/4 inch holes should be reamed to a depth such that 1/4 inch diameter locating pins can be inserted about 1/2 inch before bottoming out
 39
1
 62
7
  0
TEXT
  8
Text
  6
CONTINUOUS
 10
5.000000
 20
3.040000
 40
0.300000
 50
0.000000
 72
0
  7
romand#0.030000#0.180000
  1
1/4 inch holes should NOT be reamed through (Despite the drawing, it's OK, and probably desirable to drill through aproximately 0.01 inches undersize)
 39
1
 62
7
  0
DIMENSION
  8
Dimension
  6
CONTINUOUS
  1
ø;;
 10
14.562500
 20
6.000000
 13
14.562500
 23
7.500000
 14
15.437500
 24
7.500000
 50
0.000000
 70
0
 39
0
 62
7
  0
TEXT
  8
Dimension
  6
CONTINUOUS
 10
18.000000
 20
15.500000
 40
0.300000
 50
0.000000
 72
0
  7
Courier#0.030000#0.180000
  1
Typical of 4
 39
1
 62
7
  0
TEXT
  8
Dimension
  6
CONTINUOUS
 10
10.050000
 20
16.000000
 40
0.300000
 50
0.000000
 72
0
  7
Courier#0.030000#0.180000
  1
Typical of 8
 39
1
 62
7
  0
ENDSEC
  0
EOF
