  0
SECTION
  2
HEADER
  9
$LIMMIN
 10
0.000000
 20
0.000000
  9
$LIMMAX
 10
20.850000
 20
15.800000
  9
$EXTMIN
 10
0.000000
 20
0.000000
  9
$EXTMAX
 10
20.850000
 20
15.800000
  9
$ANGBASE
 50
0.000000
  9
$ANGDIR
 70
0
  9
$INSUNITS
 70
1
  9
$DIMALT
 70
1
  9
$DIMLUNIT
 70
2
  9
$DIMASZ
 40
0.125000
  9
$DIMTXT
 40
0.200000
  9
$DIMRND
 40
0.001000
  9
$DIMEXE
 40
0.083333
  9
$DIMEXO
 40
0.083333
  9
$DIMAUNIT
 70
0
  9
$DIMADEC
 70
2
  9
$GRIDUNIT
 10
0.001000
 20
0.001000
  9
$PLIMMIN
 10
0.000000
 20
0.000000
  9
$PLIMMAX
 10
11.000000
 20
8.500000
  9
$PSVPSCALE
 40
0.500000
  0
ENDSEC
  0
SECTION
  2
TABLES
  0
TABLE
  2
LTYPE
 70
     1
  0
LTYPE
  2
CONTINUOUS
 70
    64
  3
Ausgez
 72
    65
 73
  0
 40
0.000000
  0
ENDTAB
  0
TABLE
  2
LAYER
 70
     1
  0
LAYER
  2
default
 70
    64
 62
7
  6
CONTINUOUS
  0
LAYER
  2
Dimension
 70
    64
 62
7
  6
CONTINUOUS
  0
LAYER
  2
HoldDown
 70
    64
 62
7
  6
CONTINUOUS
  0
LAYER
  2
Text
 70
    64
 62
7
  6
CONTINUOUS
  0
ENDTAB
  0
ENDSEC
  0
SECTION
  2
BLOCKS
  0
ENDSEC
  0
SECTION
  2
ENTITIES
  0
LINE
  8
HoldDown
  6
CONTINUOUS
 10
11.875000
 20
8.475000
 11
12.500000
 21
8.475000
 39
3
 62
7
  0
LINE
  8
HoldDown
  6
CONTINUOUS
 10
12.500000
 20
10.000000
 11
12.500000
 21
8.475000
 39
3
 62
7
  0
LINE
  8
HoldDown
  6
CONTINUOUS
 10
6.000000
 20
10.000000
 11
12.500000
 21
10.000000
 39
3
 62
7
  0
LINE
  8
HoldDown
  6
CONTINUOUS
 10
6.000000
 20
10.000000
 11
6.000000
 21
9.375000
 39
3
 62
7
  0
ARC
  8
HoldDown
  6
CONTINUOUS
 10
11.625000
 20
9.125000
 40
0.250000
 50
0.000000
 51
90.000000
 39
3
 62
7
  0
LINE
  8
HoldDown
  6
CONTINUOUS
 10
11.875000
 20
9.125000
 11
11.875000
 21
8.475000
 39
3
 62
7
  0
LINE
  8
HoldDown
  6
CONTINUOUS
 10
6.000000
 20
9.375000
 11
11.625000
 21
9.375000
 39
3
 62
7
  0
LINE
  8
HoldDown
  6
CONTINUOUS
 10
15.000000
 20
10.000000
 11
16.000000
 21
10.000000
 39
3
 62
7
  0
LINE
  8
HoldDown
  6
CONTINUOUS
 10
16.000000
 20
10.000000
 11
16.000000
 21
8.475000
 39
3
 62
7
  0
LINE
  8
HoldDown
  6
CONTINUOUS
 10
15.000000
 20
10.000000
 11
15.000000
 21
8.475000
 39
3
 62
7
  0
LINE
  8
HoldDown
  6
CONTINUOUS
 10
15.000000
 20
8.475000
 11
16.000000
 21
8.475000
 39
3
 62
7
  0
LINE
  8
HoldDown
  6
CONTINUOUS
 10
6.000000
 20
6.000000
 11
6.000000
 21
5.000000
 39
3
 62
7
  0
LINE
  8
HoldDown
  6
CONTINUOUS
 10
6.000000
 20
5.000000
 11
12.500000
 21
5.000000
 39
3
 62
7
  0
LINE
  8
HoldDown
  6
CONTINUOUS
 10
6.000000
 20
6.000000
 11
12.500000
 21
6.000000
 39
3
 62
7
  0
LINE
  8
HoldDown
  6
CONTINUOUS
 10
12.500000
 20
6.000000
 11
12.500000
 21
5.000000
 39
3
 62
7
  0
LINE
  8
HoldDown
  6
CONTINUOUS
 10
11.875000
 20
6.000000
 11
11.875000
 21
5.000000
 39
3
 62
7
  0
CIRCLE
  8
HoldDown
  6
CONTINUOUS
 10
6.375000
 20
5.500000
 40
0.125000
 39
3
 62
7
  0
CIRCLE
  8
HoldDown
  6
CONTINUOUS
 10
9.625000
 20
5.500000
 40
0.098000
 39
3
 62
7
  0
LINE
  8
HoldDown
  6
DASH
 10
11.875000
 20
8.625000
 11
12.500000
 21
8.625000
 39
3
 62
7
  0
LINE
  8
HoldDown
  6
DASH
 10
11.875000
 20
8.875500
 11
12.500000
 21
8.875500
 39
3
 62
7
  0
LINE
  8
HoldDown
  6
DASH
 10
12.239500
 20
8.625000
 11
12.239500
 21
8.475000
 39
3
 62
7
  0
LINE
  8
HoldDown
  6
DASH
 10
12.135500
 20
8.625000
 11
12.135500
 21
8.475000
 39
3
 62
7
  0
CIRCLE
  8
HoldDown
  6
CONTINUOUS
 10
15.500000
 20
8.750250
 40
0.125250
 39
3
 62
7
  0
LINE
  8
HoldDown
  6
DASH
 10
15.448000
 20
8.636305
 11
15.448000
 21
8.475000
 39
3
 62
7
  0
LINE
  8
HoldDown
  6
DASH
 10
15.552000
 20
8.636305
 11
15.552000
 21
8.475000
 39
3
 62
7
  0
CIRCLE
  8
HoldDown
  6
CONTINUOUS
 10
12.187500
 20
5.500000
 40
0.052000
 39
3
 62
7
  0
LINE
  8
HoldDown
  6
DASH
 10
11.875000
 20
5.374750
 11
12.500000
 21
5.374750
 39
3
 62
7
  0
LINE
  8
HoldDown
  6
DASH
 10
11.875000
 20
5.625250
 11
12.500000
 21
5.625250
 39
3
 62
7
  0
LINE
  8
HoldDown
  6
DASH
 10
15.000000
 20
9.375000
 11
16.000000
 21
9.375000
 39
3
 62
7
  0
LINE
  8
HoldDown
  6
CONTINUOUS
 10
9.527000
 20
9.900000
 11
9.723000
 21
9.900000
 39
3
 62
7
  0
LINE
  8
HoldDown
  6
CONTINUOUS
 10
9.527000
 20
9.700000
 11
9.723000
 21
9.700000
 39
3
 62
7
  0
LINE
  8
HoldDown
  6
CONTINUOUS
 10
9.590000
 20
9.800000
 11
9.660000
 21
9.800000
 39
3
 62
7
  0
LINE
  8
HoldDown
  6
DASH
 10
6.125000
 20
9.500000
 11
6.625000
 21
9.500000
 39
3
 62
7
  0
LINE
  8
HoldDown
  6
DASH
 10
9.375000
 20
9.625000
 11
9.875000
 21
9.625000
 39
3
 62
7
  0
LINE
  8
HoldDown
  6
DASH
 10
6.125000
 20
9.500000
 11
6.125000
 21
9.375000
 39
3
 62
7
  0
LINE
  8
HoldDown
  6
DASH
 10
6.625000
 20
9.500000
 11
6.625000
 21
9.375000
 39
3
 62
7
  0
LINE
  8
HoldDown
  6
DASH
 10
9.375000
 20
9.625000
 11
9.375000
 21
9.375000
 39
3
 62
7
  0
LINE
  8
HoldDown
  6
DASH
 10
9.875000
 20
9.625000
 11
9.875000
 21
9.375000
 39
3
 62
7
  0
LINE
  8
HoldDown
  6
DASH
 10
6.250000
 20
10.000000
 11
6.250000
 21
9.500000
 39
3
 62
7
  0
LINE
  8
HoldDown
  6
DASH
 10
6.500000
 20
10.000000
 11
6.500000
 21
9.500000
 39
3
 62
7
  0
CIRCLE
  8
HoldDown
  6
CONTINUOUS
 10
9.625000
 20
5.500000
 40
0.250000
 39
3
 62
7
  0
CIRCLE
  8
HoldDown
  6
CONTINUOUS
 10
6.375000
 20
5.500000
 40
0.250000
 39
3
 62
7
  0
TEXT
  8
HoldDown
  6
CONTINUOUS
 10
10.000000
 20
8.700000
 40
0.400000
 50
0.000000
 72
0
  7
Normal#0.045000#0.240000
  1
R0.25
 39
1
 62
7
  0
LINE
  8
HoldDown
  6
DASH
 10
9.527000
 20
10.000000
 11
9.527000
 21
9.625000
 39
3
 62
7
  0
LINE
  8
HoldDown
  6
DASH
 10
9.723000
 20
10.000000
 11
9.723000
 21
9.625000
 39
3
 62
7
  0
DIMENSION
  8
Dimension
  6
CONTINUOUS
  1
;;
 10
6.000000
 20
10.500000
 13
6.000000
 23
10.000000
 14
9.625000
 24
10.000000
 50
0.000000
 70
0
 39
1
 62
7
  0
DIMENSION
  8
Dimension
  6
CONTINUOUS
  1
;;
 10
6.000000
 20
12.000000
 13
6.000000
 23
10.000000
 14
12.500000
 24
10.000000
 50
0.000000
 70
0
 39
1
 62
7
  0
DIMENSION
  8
Dimension
  6
CONTINUOUS
  1
;;
 10
15.000000
 20
11.000000
 13
15.000000
 23
10.000000
 14
16.000000
 24
10.000000
 50
0.000000
 70
0
 39
1
 62
7
  0
DIMENSION
  8
Dimension
  6
CONTINUOUS
  1
;;
 10
5.000000
 20
10.000000
 13
6.000000
 23
10.000000
 14
6.000000
 24
9.375000
 50
90.000000
 70
0
 39
1
 62
7
  0
DIMENSION
  8
Dimension
  6
CONTINUOUS
  1
;;
 10
18.000000
 20
10.000000
 13
16.000000
 23
10.000000
 14
16.000000
 24
8.475000
 50
90.000000
 70
0
 39
1
 62
7
  0
DIMENSION
  8
Dimension
  6
CONTINUOUS
  1
;;
 10
6.000000
 20
7.500000
 13
6.000000
 23
9.375000
 14
6.375000
 24
9.375000
 50
0.000000
 70
0
 39
1
 62
7
  0
LINE
  8
Dimension
  6
CONTINUOUS
 10
9.900000
 20
8.600000
 11
11.100000
 21
8.600000
 39
1
 62
7
  0
DIMENSION
  8
Dimension
  6
CONTINUOUS
  1
;;
 10
15.552000
 20
6.500000
 13
15.552000
 23
8.475000
 14
15.448000
 24
8.475000
 50
0.000000
 70
0
 39
1
 62
7
  0
DIMENSION
  8
Dimension
  6
CONTINUOUS
  1
ø0.25;-.000;+.001
 10
15.374750
 20
7.500000
 13
15.374750
 23
8.750250
 14
15.625250
 24
8.750250
 70
1
 39
1
 62
7
  0
LINE
  8
Dimension
  6
DASHDOT
 10
6.375000
 20
10.200000
 11
6.375000
 21
5.200000
 39
1
 62
7
  0
LINE
  8
Dimension
  6
DASHDOT
 10
9.625000
 20
10.200000
 11
9.625000
 21
5.200000
 39
1
 62
7
  0
LINE
  8
Dimension
  6
DASHDOT
 10
12.187500
 20
8.750250
 11
12.187500
 21
5.374750
 39
1
 62
7
  0
LINE
  8
Dimension
  6
DASHDOT
 10
6.100000
 20
5.500000
 11
12.650000
 21
5.500000
 39
1
 62
7
  0
LINE
  8
Dimension
  6
DASHDOT
 10
11.700000
 20
8.750250
 11
15.850000
 21
8.750250
 39
1
 62
7
  0
LINE
  8
Dimension
  6
DASHDOT
 10
15.500000
 20
9.000000
 11
15.500000
 21
8.300000
 39
1
 62
7
  0
DIMENSION
  8
Dimension
  6
CONTINUOUS
  1
;;
 10
11.100000
 20
8.600000
 13
11.100000
 23
8.600000
 14
11.801777
 24
9.301777
 70
7
 39
1
 62
7
  0
DIMENSION
  8
Dimension
  6
CONTINUOUS
  1
ø;;
 10
6.125000
 20
4.100000
 13
6.125000
 23
5.500000
 14
6.625000
 24
5.500000
 70
1
 39
1
 62
7
  0
DIMENSION
  8
Dimension
  6
CONTINUOUS
  1
ø;;
 10
9.375000
 20
4.000000
 13
9.375000
 23
5.500000
 14
9.875000
 24
5.500000
 70
1
 39
1
 62
7
  0
DIMENSION
  8
Dimension
  6
CONTINUOUS
  1
ø;;
 10
6.250000
 20
3.000000
 13
6.250000
 23
5.500000
 14
6.500000
 24
5.500000
 70
1
 39
1
 62
7
  0
DIMENSION
  8
Dimension
  6
CONTINUOUS
  1
ø;;
 10
9.527000
 20
3.000000
 13
9.527000
 23
5.500000
 14
9.723000
 24
5.500000
 70
1
 39
1
 62
7
  0
TEXT
  8
Text
  6
CONTINUOUS
 10
14.000000
 20
15.500000
 40
0.300000
 50
0.000000
 72
0
  7
Courier#0.030000#0.180000
  1
PSAS <www.psas.pdx.edu>
 39
1
 62
7
  0
TEXT
  8
Text
  6
CONTINUOUS
 10
14.000000
 20
15.000000
 40
0.300000
 50
0.000000
 72
0
  7
Courier#0.030000#0.180000
  1
LV2 module jig hold downs
 39
1
 62
7
  0
TEXT
  8
Text
  6
CONTINUOUS
 10
14.000000
 20
13.500000
 40
0.300000
 50
0.000000
 72
0
  7
Courier#0.030000#0.180000
  1
Dimensions in inches
 39
1
 62
7
  0
TEXT
  8
Text
  6
CONTINUOUS
 10
14.500000
 20
5.000000
 40
0.300000
 50
0.000000
 72
0
  7
romand#0.030000#0.180000
  1
Notes:
 39
1
 62
7
  0
TEXT
  8
Text
  6
CONTINUOUS
 10
14.500000
 20
4.580000
 40
0.300000
 50
0.000000
 72
0
  7
romand#0.030000#0.180000
  1
Material is 6061-T6 or similar
 39
1
 62
7
  0
TEXT
  8
Text
  6
CONTINUOUS
 10
14.500000
 20
4.160000
 40
0.300000
 50
0.000000
 72
0
  7
romand#0.030000#0.180000
  1
.104 hole thread 6-32
 39
1
 62
7
  0
TEXT
  8
Text
  6
CONTINUOUS
 10
14.500000
 20
3.740000
 40
0.300000
 50
0.000000
 72
0
  7
romand#0.030000#0.180000
  1
.196 hole thread 1/4-20
 39
1
 62
7
  0
TEXT
  8
Text
  6
CONTINUOUS
 10
14.000000
 20
14.500000
 40
0.300000
 50
0.000000
 72
0
  7
Courier#0.030000#0.180000
  1
v1.3  3/03/03
 39
1
 62
7
  0
DIMENSION
  8
Dimension
  6
CONTINUOUS
  1
;;
 10
12.500000
 20
3.500000
 13
12.500000
 23
5.000000
 14
11.875000
 24
5.000000
 50
0.000000
 70
0
 39
0
 62
7
  0
ENDSEC
  0
EOF
