  0
SECTION
  2
HEADER
  9
$LIMMIN
 10
0.000000
 20
0.000000
  9
$LIMMAX
 10
21.241304
 20
16.428572
  9
$EXTMIN
 10
0.000000
 20
0.000000
  9
$EXTMAX
 10
21.241304
 20
16.428572
  9
$ANGBASE
 50
0.000000
  9
$ANGDIR
 70
0
  9
$INSUNITS
 70
1
  9
$DIMALT
 70
1
  9
$DIMLUNIT
 70
2
  9
$DIMASZ
 40
0.125000
  9
$DIMTXT
 40
0.200000
  9
$DIMRND
 40
0.001000
  9
$DIMEXE
 40
0.083333
  9
$DIMEXO
 40
0.083333
  9
$DIMAUNIT
 70
0
  9
$DIMADEC
 70
2
  9
$GRIDUNIT
 10
0.001000
 20
0.001000
  9
$PLIMMIN
 10
0.000000
 20
0.000000
  9
$PLIMMAX
 10
11.000000
 20
8.500000
  9
$PSVPSCALE
 40
0.500000
  0
ENDSEC
  0
SECTION
  2
TABLES
  0
TABLE
  2
LTYPE
 70
     1
  0
LTYPE
  2
CONTINUOUS
 70
    64
  3
Ausgez
 72
    65
 73
  0
 40
0.000000
  0
ENDTAB
  0
TABLE
  2
LAYER
 70
     1
  0
LAYER
  2
default
 70
    64
 62
7
  6
CONTINUOUS
  0
LAYER
  2
Clamp
 70
    64
 62
7
  6
CONTINUOUS
  0
LAYER
  2
Bushing
 70
    64
 62
23
  6
CONTINUOUS
  0
LAYER
  2
Liner
 70
    64
 62
2
  6
DASH
  0
LAYER
  2
Dimension
 70
    64
 62
7
  6
CONTINUOUS
  0
LAYER
  2
Liner Dimension
 70
    64
 62
7
  6
CONTINUOUS
  0
LAYER
  2
Text
 70
    64
 62
7
  6
CONTINUOUS
  0
LAYER
  2
Bushing Dimension
 70
    64
 62
7
  6
CONTINUOUS
  0
LAYER
  2
HoldDown
 70
    64
 62
221
  6
CONTINUOUS
  0
LAYER
  2
Screws
 70
    64
 62
1
  6
CONTINUOUS
  0
ENDTAB
  0
ENDSEC
  0
SECTION
  2
BLOCKS
  0
ENDSEC
  0
SECTION
  2
ENTITIES
  0
CIRCLE
  8
default
  6
CONTINUOUS
 10
11.000000
 20
9.200000
 40
2.625000
 39
0
 62
7
  0
CIRCLE
  8
default
  6
CONTINUOUS
 10
11.000000
 20
9.200000
 40
2.875000
 39
0
 62
7
  0
CIRCLE
  8
default
  6
CONTINUOUS
 10
11.000000
 20
9.200000
 40
3.875000
 39
0
 62
7
  0
ARC
  8
Clamp
  6
CONTINUOUS
 10
11.000000
 20
9.200000
 40
2.875000
 50
90.000000
 51
270.000000
 39
3
 62
7
  0
LINE
  8
Clamp
  6
CONTINUOUS
 10
11.000000
 20
12.075000
 11
13.625000
 21
12.075000
 39
3
 62
7
  0
LINE
  8
Clamp
  6
CONTINUOUS
 10
11.000000
 20
6.325000
 11
13.625000
 21
6.325000
 39
3
 62
7
  0
LINE
  8
Clamp
  6
CONTINUOUS
 10
7.125000
 20
5.325000
 11
13.625000
 21
5.325000
 39
3
 62
7
  0
LINE
  8
Clamp
  6
CONTINUOUS
 10
13.625000
 20
6.325000
 11
13.625000
 21
5.325000
 39
3
 62
7
  0
LINE
  8
default
  6
CONTINUOUS
 10
6.000000
 20
14.200000
 11
16.500000
 21
14.200000
 39
0
 62
7
  0
LINE
  8
default
  6
CONTINUOUS
 10
16.500000
 20
14.200000
 11
16.500000
 21
3.700000
 39
0
 62
7
  0
LINE
  8
default
  6
CONTINUOUS
 10
16.500000
 20
3.700000
 11
6.000000
 21
3.700000
 39
0
 62
7
  0
LINE
  8
default
  6
CONTINUOUS
 10
6.000000
 20
3.700000
 11
6.000000
 21
14.200000
 39
0
 62
7
  0
LINE
  8
default
  6
CONTINUOUS
 10
11.000000
 20
6.325000
 11
16.500000
 21
6.325000
 39
0
 62
7
  0
LINE
  8
default
  6
CONTINUOUS
 10
11.000000
 20
12.075000
 11
16.500000
 21
12.075000
 39
0
 62
7
  0
LINE
  8
default
  6
CONTINUOUS
 10
16.500000
 20
3.700000
 11
6.000000
 21
14.200000
 39
0
 62
7
  0
LINE
  8
default
  6
CONTINUOUS
 10
6.000000
 20
11.825000
 11
16.500000
 21
11.825000
 39
0
 62
7
  0
LINE
  8
default
  6
CONTINUOUS
 10
6.000000
 20
6.575000
 11
16.500000
 21
6.575000
 39
0
 62
7
  0
LINE
  8
default
  6
CONTINUOUS
 10
13.625000
 20
14.200000
 11
13.625000
 21
3.700000
 39
0
 62
7
  0
LINE
  8
default
  6
CONTINUOUS
 10
13.875000
 20
14.200000
 11
13.875000
 21
3.700000
 39
0
 62
7
  0
LINE
  8
Clamp
  6
CONTINUOUS
 10
8.791369
 20
12.825000
 11
13.625000
 21
12.825000
 39
3
 62
7
  0
LINE
  8
Clamp
  6
CONTINUOUS
 10
7.125000
 20
11.158631
 11
7.125000
 21
5.325000
 39
3
 62
7
  0
LINE
  8
Clamp
  6
CONTINUOUS
 10
7.125000
 20
11.158631
 11
8.791369
 21
12.825000
 39
3
 62
7
  0
LINE
  8
Clamp
  6
CONTINUOUS
 10
13.625000
 20
12.825000
 11
13.625000
 21
12.075000
 39
3
 62
7
  0
LINE
  8
default
  6
CONTINUOUS
 10
7.125000
 20
6.075000
 11
13.625000
 21
6.075000
 39
0
 62
7
  0
LINE
  8
Bushing
  6
CONTINUOUS
 10
10.687500
 20
12.950000
 11
11.312500
 21
12.950000
 39
3
 62
23
  0
LINE
  8
Bushing
  6
CONTINUOUS
 10
10.687500
 20
12.950000
 11
10.687500
 21
12.825000
 39
3
 62
23
  0
LINE
  8
Bushing
  6
CONTINUOUS
 10
10.687500
 20
12.825000
 11
11.312500
 21
12.825000
 39
3
 62
23
  0
LINE
  8
Bushing
  6
CONTINUOUS
 10
11.312500
 20
12.950000
 11
11.312500
 21
12.825000
 39
3
 62
23
  0
LINE
  8
Bushing
  6
DASH
 10
10.889500
 20
12.950000
 11
10.889500
 21
11.825000
 39
3
 62
23
  0
LINE
  8
Bushing
  6
DASH
 10
11.110500
 20
12.950000
 11
11.110500
 21
11.825000
 39
3
 62
23
  0
LINE
  8
Clamp
  6
CONTINUOUS
 10
10.300000
 20
5.450000
 11
10.450000
 21
5.450000
 39
3
 62
7
  0
LINE
  8
Clamp
  6
CONTINUOUS
 10
10.218750
 20
5.650000
 11
10.531250
 21
5.650000
 39
3
 62
7
  0
LINE
  8
Clamp
  6
CONTINUOUS
 10
10.300000
 20
5.850000
 11
10.450000
 21
5.850000
 39
3
 62
7
  0
LINE
  8
Clamp
  6
CONTINUOUS
 10
10.218750
 20
6.050000
 11
10.531250
 21
6.050000
 39
3
 62
7
  0
LINE
  8
Clamp
  6
CONTINUOUS
 10
10.300000
 20
6.250000
 11
10.450000
 21
6.250000
 39
3
 62
7
  0
LINE
  8
Clamp
  6
CONTINUOUS
 10
10.950000
 20
5.450000
 11
11.050000
 21
5.450000
 39
3
 62
7
  0
LINE
  8
Clamp
  6
CONTINUOUS
 10
10.902000
 20
5.650000
 11
11.098000
 21
5.650000
 39
3
 62
7
  0
LINE
  8
Clamp
  6
CONTINUOUS
 10
10.950000
 20
5.850000
 11
11.050000
 21
5.850000
 39
3
 62
7
  0
LINE
  8
Clamp
  6
CONTINUOUS
 10
10.902000
 20
6.050000
 11
11.098000
 21
6.050000
 39
3
 62
7
  0
LINE
  8
Clamp
  6
CONTINUOUS
 10
10.950000
 20
6.250000
 11
11.050000
 21
6.250000
 39
3
 62
7
  0
LINE
  8
Clamp
  6
CONTINUOUS
 10
7.250000
 20
9.250000
 11
7.250000
 21
9.150000
 39
3
 62
7
  0
LINE
  8
Clamp
  6
CONTINUOUS
 10
7.450000
 20
9.298000
 11
7.450000
 21
9.102000
 39
3
 62
7
  0
LINE
  8
Clamp
  6
CONTINUOUS
 10
7.650000
 20
9.250000
 11
7.650000
 21
9.150000
 39
3
 62
7
  0
LINE
  8
Clamp
  6
CONTINUOUS
 10
7.850000
 20
9.298000
 11
7.850000
 21
9.102000
 39
3
 62
7
  0
LINE
  8
Clamp
  6
CONTINUOUS
 10
8.050000
 20
9.250000
 11
8.050000
 21
9.150000
 39
3
 62
7
  0
LINE
  8
default
  6
CONTINUOUS
 10
1.000000
 20
9.200000
 11
16.500000
 21
9.200000
 39
0
 62
7
  0
LINE
  8
Liner
  6
CONTINUOUS
 10
10.625000
 20
12.825000
 11
11.375000
 21
12.825000
 39
3
 62
2
  0
LINE
  8
Liner
  6
CONTINUOUS
 10
10.625000
 20
12.075000
 11
11.375000
 21
12.075000
 39
3
 62
2
  0
LINE
  8
Bushing
  6
CONTINUOUS
 10
7.773825
 20
11.984233
 11
8.215767
 21
12.426175
 39
3
 62
23
  0
LINE
  8
Bushing
  6
CONTINUOUS
 10
7.773825
 20
11.984233
 11
7.862214
 21
11.895845
 39
3
 62
23
  0
LINE
  8
Bushing
  6
CONTINUOUS
 10
7.862214
 20
11.895845
 11
8.304155
 21
12.337786
 39
3
 62
23
  0
LINE
  8
Bushing
  6
CONTINUOUS
 10
8.215767
 20
12.426175
 11
8.304155
 21
12.337786
 39
3
 62
23
  0
LINE
  8
Bushing
  6
DASH
 10
7.916661
 20
12.127069
 11
8.977321
 21
11.066408
 39
3
 62
23
  0
LINE
  8
Bushing
  6
DASH
 10
8.072931
 20
12.283339
 11
9.133592
 21
11.222679
 39
3
 62
23
  0
LINE
  8
default
  6
CONTINUOUS
 10
1.604351
 20
11.851650
 11
7.818019
 21
11.851650
 39
0
 62
7
  0
LINE
  8
default
  6
CONTINUOUS
 10
1.604351
 20
12.381981
 11
8.348350
 21
12.381981
 39
0
 62
7
  0
LINE
  8
default
  6
CONTINUOUS
 10
1.000000
 20
12.116815
 11
8.083185
 21
12.116815
 39
0
 62
7
  0
LINE
  8
default
  6
CONTINUOUS
 10
8.125000
 20
17.200000
 11
8.125000
 21
3.700000
 39
0
 62
7
  0
LINE
  8
default
  6
CONTINUOUS
 10
8.375000
 20
17.200000
 11
8.375000
 21
3.700000
 39
0
 62
7
  0
LINE
  8
default
  6
CONTINUOUS
 10
11.000000
 20
17.200000
 11
11.000000
 21
0.700000
 39
0
 62
7
  0
LINE
  8
default
  6
CONTINUOUS
 10
10.375000
 20
14.200000
 11
10.375000
 21
0.700000
 39
0
 62
7
  0
LINE
  8
default
  6
CONTINUOUS
 10
7.750000
 20
17.200000
 11
7.750000
 21
1.450000
 39
0
 62
7
  0
LINE
  8
default
  6
CONTINUOUS
 10
13.000000
 20
14.200000
 11
13.000000
 21
1.450000
 39
0
 62
7
  0
LINE
  8
default
  6
CONTINUOUS
 10
16.500000
 20
14.200000
 11
6.000000
 21
14.200000
 39
0
 62
7
  0
LINE
  8
default
  6
CONTINUOUS
 10
6.000000
 20
14.200000
 11
6.000000
 21
16.700000
 39
0
 62
7
  0
LINE
  8
default
  6
CONTINUOUS
 10
6.000000
 20
16.700000
 11
16.500000
 21
16.700000
 39
0
 62
7
  0
LINE
  8
default
  6
CONTINUOUS
 10
16.500000
 20
16.700000
 11
16.500000
 21
14.200000
 39
0
 62
7
  0
LINE
  8
default
  6
CONTINUOUS
 10
-0.933192
 20
15.450000
 11
22.933192
 21
15.450000
 39
0
 62
7
  0
LINE
  8
default
  6
CONTINUOUS
 10
7.125000
 20
15.850000
 11
8.791369
 21
15.850000
 39
0
 62
7
  0
LINE
  8
default
  6
CONTINUOUS
 10
7.125000
 20
15.475000
 11
13.625000
 21
15.475000
 39
0
 62
7
  0
LINE
  8
default
  6
CONTINUOUS
 10
7.125000
 20
15.130000
 11
13.625000
 21
15.130000
 39
0
 62
7
  0
LINE
  8
default
  6
CONTINUOUS
 10
6.000000
 20
3.700000
 11
2.000000
 21
3.700000
 39
0
 62
7
  0
LINE
  8
default
  6
CONTINUOUS
 10
2.000000
 20
3.700000
 11
2.000000
 21
14.200000
 39
0
 62
7
  0
LINE
  8
default
  6
CONTINUOUS
 10
2.000000
 20
14.200000
 11
6.000000
 21
14.200000
 39
0
 62
7
  0
LINE
  8
default
  6
CONTINUOUS
 10
6.000000
 20
14.200000
 11
6.000000
 21
3.700000
 39
0
 62
7
  0
LINE
  8
default
  6
CONTINUOUS
 10
4.000000
 20
18.023966
 11
4.000000
 21
-0.616543
 39
0
 62
7
  0
LINE
  8
Clamp
  6
CONTINUOUS
 10
3.500000
 20
12.825000
 11
4.500000
 21
12.825000
 39
3
 62
7
  0
LINE
  8
Clamp
  6
CONTINUOUS
 10
3.500000
 20
12.825000
 11
3.500000
 21
5.325000
 39
3
 62
7
  0
LINE
  8
Clamp
  6
CONTINUOUS
 10
3.500000
 20
5.325000
 11
4.500000
 21
5.325000
 39
3
 62
7
  0
LINE
  8
Clamp
  6
CONTINUOUS
 10
4.500000
 20
12.825000
 11
4.500000
 21
5.325000
 39
3
 62
7
  0
LINE
  8
Clamp
  6
CONTINUOUS
 10
3.500000
 20
11.158631
 11
4.500000
 21
11.158631
 39
3
 62
7
  0
LINE
  8
default
  6
CONTINUOUS
 10
3.975000
 20
12.825000
 11
3.975000
 21
5.325000
 39
0
 62
7
  0
LINE
  8
default
  6
CONTINUOUS
 10
4.320000
 20
12.825000
 11
4.320000
 21
5.325000
 39
0
 62
7
  0
LINE
  8
default
  6
CONTINUOUS
 10
4.222000
 20
11.158631
 11
4.222000
 21
5.325000
 39
0
 62
7
  0
LINE
  8
default
  6
CONTINUOUS
 10
4.418000
 20
11.158631
 11
4.418000
 21
5.325000
 39
0
 62
7
  0
LINE
  8
default
  6
CONTINUOUS
 10
4.350000
 20
12.825000
 11
4.350000
 21
11.158631
 39
0
 62
7
  0
LINE
  8
default
  6
CONTINUOUS
 10
3.600000
 20
12.825000
 11
3.600000
 21
11.158631
 39
0
 62
7
  0
LINE
  8
default
  6
CONTINUOUS
 10
3.820000
 20
18.023966
 11
3.820000
 21
-0.616543
 39
0
 62
7
  0
LINE
  8
default
  6
CONTINUOUS
 10
6.000000
 20
3.700000
 11
16.500000
 21
3.700000
 39
0
 62
7
  0
LINE
  8
default
  6
CONTINUOUS
 10
16.500000
 20
3.700000
 11
16.500000
 21
1.200000
 39
0
 62
7
  0
LINE
  8
default
  6
CONTINUOUS
 10
16.500000
 20
1.200000
 11
6.000000
 21
1.200000
 39
0
 62
7
  0
LINE
  8
default
  6
CONTINUOUS
 10
6.000000
 20
1.200000
 11
6.000000
 21
3.700000
 39
0
 62
7
  0
LINE
  8
default
  6
CONTINUOUS
 10
-0.933192
 20
2.450000
 11
22.933192
 21
2.450000
 39
0
 62
7
  0
LINE
  8
Clamp
  6
CONTINUOUS
 10
7.125000
 20
2.950000
 11
7.125000
 21
1.950000
 39
3
 62
7
  0
LINE
  8
Clamp
  6
CONTINUOUS
 10
7.125000
 20
1.950000
 11
13.625000
 21
1.950000
 39
3
 62
7
  0
LINE
  8
Clamp
  6
CONTINUOUS
 10
13.625000
 20
2.950000
 11
13.625000
 21
1.950000
 39
3
 62
7
  0
LINE
  8
Clamp
  6
CONTINUOUS
 10
7.125000
 20
2.950000
 11
13.625000
 21
2.950000
 39
3
 62
7
  0
LINE
  8
default
  6
CONTINUOUS
 10
10.375000
 20
2.770000
 11
13.625000
 21
2.770000
 39
0
 62
7
  0
CIRCLE
  8
Clamp
  6
CONTINUOUS
 10
10.375000
 20
2.450000
 40
0.156250
 39
3
 62
7
  0
CIRCLE
  8
Clamp
  6
CONTINUOUS
 10
7.750000
 20
2.450000
 40
0.125000
 39
3
 62
7
  0
CIRCLE
  8
Clamp
  6
CONTINUOUS
 10
13.000000
 20
2.450000
 40
0.125000
 39
3
 62
7
  0
LINE
  8
Clamp
  6
DASH
 10
11.375500
 20
12.825000
 11
11.375500
 21
12.075000
 39
3
 62
7
  0
LINE
  8
Clamp
  6
DASH
 10
10.624500
 20
12.825000
 11
10.624500
 21
12.050373
 39
3
 62
7
  0
LINE
  8
Clamp
  6
DASH
 10
7.875000
 20
6.075000
 11
7.875000
 21
5.325000
 39
3
 62
7
  0
LINE
  8
Clamp
  6
DASH
 10
7.625000
 20
6.075000
 11
7.625000
 21
5.325000
 39
3
 62
7
  0
LINE
  8
Clamp
  6
DASH
 10
7.875000
 20
6.075000
 11
7.750000
 21
6.147169
 39
3
 62
7
  0
LINE
  8
Clamp
  6
DASH
 10
7.625000
 20
6.075000
 11
7.750000
 21
6.147169
 39
3
 62
7
  0
LINE
  8
Clamp
  6
DASH
 10
11.098000
 20
6.325000
 11
11.098000
 21
5.325000
 39
3
 62
7
  0
LINE
  8
Clamp
  6
DASH
 10
10.902000
 20
6.325000
 11
10.902000
 21
5.325000
 39
3
 62
7
  0
LINE
  8
Clamp
  6
DASH
 10
10.218750
 20
6.433184
 11
10.218750
 21
5.325000
 39
3
 62
7
  0
LINE
  8
Clamp
  6
DASH
 10
10.531250
 20
6.363471
 11
10.531250
 21
5.325000
 39
3
 62
7
  0
LINE
  8
Liner
  6
DASH
 10
11.250175
 20
12.825000
 11
11.250175
 21
12.075000
 39
3
 62
2
  0
LINE
  8
Liner
  6
DASH
 10
10.749825
 20
12.825000
 11
10.749825
 21
12.075000
 39
3
 62
2
  0
LINE
  8
Liner
  6
DASH
 10
10.624175
 20
12.825000
 11
10.624175
 21
12.075000
 39
3
 62
2
  0
LINE
  8
Liner
  6
DASH
 10
11.375825
 20
12.825000
 11
11.375825
 21
12.075000
 39
3
 62
2
  0
DIMENSION
  8
Liner Dimension
  6
CONTINUOUS
  1
;;
 10
12.500000
 20
12.075000
 13
11.375825
 23
12.075000
 14
11.375825
 24
12.825000
 50
90.000000
 70
0
 39
1
 62
7
  0
TEXT
  8
Text
  6
CONTINUOUS
 10
14.500000
 20
15.700000
 40
0.300000
 50
0.000000
 72
0
  7
Courier#0.030000#0.180000
  1
PSAS <www.psas.pdx.edu>
 39
1
 62
7
  0
TEXT
  8
Text
  6
CONTINUOUS
 10
14.500000
 20
15.280000
 40
0.300000
 50
0.000000
 72
0
  7
Courier#0.030000#0.180000
  1
LV2 module jig clamps
 39
1
 62
7
  0
LINE
  8
Bushing
  6
DASH
 10
8.798024
 20
11.048493
 11
7.906443
 21
11.940074
 39
3
 62
23
  0
LINE
  8
Bushing
  6
DASH
 10
9.151507
 20
11.401976
 11
8.259926
 21
12.293557
 39
3
 62
23
  0
LINE
  8
Bushing
  6
DASH
 10
10.750050
 20
12.825000
 11
10.750050
 21
12.064114
 39
3
 62
23
  0
LINE
  8
Bushing
  6
DASH
 10
11.249950
 20
12.825000
 11
11.249950
 21
12.075000
 39
3
 62
23
  0
LINE
  8
Bushing
  6
CONTINUOUS
 10
9.232198
 20
11.321285
 11
8.878715
 21
10.967802
 39
3
 62
23
  0
LINE
  8
Bushing
  6
CONTINUOUS
 10
8.878715
 20
10.967802
 11
8.798024
 21
11.048493
 39
3
 62
23
  0
LINE
  8
Bushing
  6
CONTINUOUS
 10
8.798024
 20
11.048493
 11
8.878715
 21
10.967802
 39
3
 62
23
  0
LINE
  8
Bushing
  6
CONTINUOUS
 10
9.151507
 20
11.401976
 11
9.232198
 21
11.321285
 39
3
 62
23
  0
LINE
  8
Bushing
  6
CONTINUOUS
 10
10.750050
 20
11.825000
 11
11.249950
 21
11.825000
 39
3
 62
23
  0
LINE
  8
Bushing
  6
CONTINUOUS
 10
10.750050
 20
12.064114
 11
10.750050
 21
11.825000
 39
3
 62
23
  0
LINE
  8
Bushing
  6
CONTINUOUS
 10
11.249950
 20
12.075000
 11
11.249950
 21
11.825000
 39
3
 62
23
  0
DIMENSION
  8
Bushing Dimension
  6
CONTINUOUS
  1
ø0.4999;-.0001;+.0001
 10
11.249950
 20
10.200000
 13
11.249950
 23
11.825000
 14
10.750050
 24
11.825000
 50
0.000000
 70
0
 39
0
 62
7
  0
DIMENSION
  8
Bushing Dimension
  6
CONTINUOUS
  1
;;
 10
12.200000
 20
12.825000
 13
11.249950
 23
12.825000
 14
11.249950
 24
11.825000
 50
90.000000
 70
0
 39
0
 62
7
  0
DIMENSION
  8
Bushing Dimension
  6
CONTINUOUS
  1
;;
 10
8.433184
 20
12.466815
 13
7.906443
 23
11.940074
 14
8.878715
 24
10.967802
 70
1
 39
0
 62
7
  0
LINE
  8
Clamp
  6
CONTINUOUS
 10
7.125000
 20
15.450000
 11
7.125000
 21
14.450000
 39
3
 62
7
  0
LINE
  8
Clamp
  6
CONTINUOUS
 10
7.125000
 20
14.450000
 11
13.625000
 21
14.450000
 39
3
 62
7
  0
LINE
  8
Clamp
  6
CONTINUOUS
 10
13.625000
 20
15.450000
 11
13.625000
 21
14.450000
 39
3
 62
7
  0
LINE
  8
Clamp
  6
CONTINUOUS
 10
7.125000
 20
15.450000
 11
13.625000
 21
15.450000
 39
3
 62
7
  0
LINE
  8
Clamp
  6
CONTINUOUS
 10
8.791369
 20
15.450000
 11
8.791369
 21
14.450000
 39
3
 62
7
  0
CIRCLE
  8
Clamp
  6
CONTINUOUS
 10
11.000000
 20
14.975000
 40
0.375000
 39
3
 62
7
  0
CIRCLE
  8
Bushing
  6
CONTINUOUS
 10
11.000000
 20
14.975000
 40
0.312500
 39
3
 62
23
  0
CIRCLE
  8
Bushing
  6
CONTINUOUS
 10
11.000000
 20
14.975000
 40
0.110500
 39
3
 62
23
  0
CIRCLE
  8
Liner
  6
CONTINUOUS
 10
11.000000
 20
14.975000
 40
0.250175
 39
3
 62
2
  0
CIRCLE
  8
Liner
  6
CONTINUOUS
 10
11.000000
 20
14.975000
 40
0.375825
 39
3
 62
2
  0
DIMENSION
  8
Liner Dimension
  6
CONTINUOUS
  1
ø0.75165;-.00015;+.00015
 10
11.375825
 20
13.600000
 13
11.375825
 23
14.975000
 14
10.624175
 24
14.975000
 70
1
 39
1
 62
7
  0
DIMENSION
  8
Liner Dimension
  6
CONTINUOUS
  1
ø0.50035;-.00015;+.00015
 10
11.250175
 20
15.800000
 13
11.250175
 23
14.975000
 14
10.749825
 24
14.975000
 70
1
 39
1
 62
7
  0
CIRCLE
  8
Bushing
  6
DASH
 10
11.000000
 20
14.975000
 40
0.249950
 39
3
 62
23
  0
LINE
  8
Clamp
  6
DASH
 10
10.016546
 20
11.901563
 11
9.634045
 21
12.825000
 39
3
 62
7
  0
LINE
  8
Clamp
  6
DASH
 10
9.785114
 20
11.805701
 11
9.362906
 21
12.825000
 39
3
 62
7
  0
ARC
  8
Clamp
  6
CONTINUOUS
 10
9.498476
 20
14.964255
 40
0.135995
 50
4.531581
 51
175.468419
 39
3
 62
7
  0
ARC
  8
Clamp
  6
CONTINUOUS
 10
9.498476
 20
14.985745
 40
0.135995
 50
184.531581
 51
355.468419
 39
3
 62
7
  0
LINE
  8
default
  6
CONTINUOUS
 10
9.362906
 20
15.100250
 11
9.634045
 21
15.100250
 39
1
 62
7
  0
LINE
  8
default
  6
CONTINUOUS
 10
9.634045
 20
15.100250
 11
9.634045
 21
14.849750
 39
1
 62
7
  0
LINE
  8
default
  6
CONTINUOUS
 10
9.362906
 20
14.849750
 11
9.634045
 21
14.849750
 39
1
 62
7
  0
LINE
  8
default
  6
CONTINUOUS
 10
9.362906
 20
15.100250
 11
9.362906
 21
14.849750
 39
1
 62
7
  0
LINE
  8
default
  6
CONTINUOUS
 10
9.764216
 20
15.100250
 11
10.035355
 21
15.100250
 39
1
 62
7
  0
LINE
  8
default
  6
CONTINUOUS
 10
10.035355
 20
15.100250
 11
10.035355
 21
14.849750
 39
1
 62
7
  0
LINE
  8
default
  6
CONTINUOUS
 10
9.764216
 20
14.849750
 11
10.035355
 21
14.849750
 39
1
 62
7
  0
LINE
  8
default
  6
CONTINUOUS
 10
9.764216
 20
15.100250
 11
9.764216
 21
14.849750
 39
1
 62
7
  0
LINE
  8
HoldDown
  6
CONTINUOUS
 10
12.775000
 20
6.950000
 11
12.725000
 21
6.900000
 39
3
 62
221
  0
LINE
  8
HoldDown
  6
CONTINUOUS
 10
12.725000
 20
6.900000
 11
12.725000
 21
6.325000
 39
3
 62
221
  0
ARC
  8
HoldDown
  6
CONTINUOUS
 10
13.375000
 20
7.200000
 40
0.250000
 50
270.000000
 51
0.000000
 39
3
 62
221
  0
LINE
  8
HoldDown
  6
CONTINUOUS
 10
12.775000
 20
6.950000
 11
13.375000
 21
6.950000
 39
3
 62
221
  0
LINE
  8
HoldDown
  6
CONTINUOUS
 10
12.875000
 20
6.950000
 11
12.875000
 21
6.325000
 39
3
 62
221
  0
LINE
  8
HoldDown
  6
CONTINUOUS
 10
13.125000
 20
6.950000
 11
13.125000
 21
6.325000
 39
3
 62
221
  0
LINE
  8
HoldDown
  6
CONTINUOUS
 10
13.625000
 20
12.825000
 11
14.250000
 21
12.825000
 39
3
 62
221
  0
LINE
  8
HoldDown
  6
CONTINUOUS
 10
14.250000
 20
12.825000
 11
14.250000
 21
6.325000
 39
3
 62
221
  0
LINE
  8
HoldDown
  6
CONTINUOUS
 10
12.725000
 20
6.325000
 11
14.250000
 21
6.325000
 39
3
 62
221
  0
LINE
  8
HoldDown
  6
DASH
 10
12.725000
 20
6.585500
 11
12.875000
 21
6.585500
 39
3
 62
221
  0
LINE
  8
HoldDown
  6
DASH
 10
12.725000
 20
6.689500
 11
12.875000
 21
6.689500
 39
3
 62
221
  0
LINE
  8
HoldDown
  6
CONTINUOUS
 10
13.625000
 20
12.575000
 11
14.250000
 21
12.575000
 39
3
 62
221
  0
LINE
  8
HoldDown
  6
CONTINUOUS
 10
13.625000
 20
12.325000
 11
14.250000
 21
12.325000
 39
3
 62
221
  0
LINE
  8
Clamp
  6
DASH
 10
12.875000
 20
6.325000
 11
12.875000
 21
5.325000
 39
3
 62
7
  0
LINE
  8
Clamp
  6
DASH
 10
13.125000
 20
6.325000
 11
13.125000
 21
5.325000
 39
3
 62
7
  0
LINE
  8
Clamp
  6
CONTINUOUS
 10
15.500000
 20
12.825000
 11
16.500000
 21
12.825000
 39
3
 62
7
  0
LINE
  8
Clamp
  6
CONTINUOUS
 10
15.500000
 20
12.825000
 11
15.500000
 21
5.325000
 39
3
 62
7
  0
LINE
  8
Clamp
  6
CONTINUOUS
 10
15.500000
 20
5.325000
 11
16.500000
 21
5.325000
 39
3
 62
7
  0
LINE
  8
Clamp
  6
CONTINUOUS
 10
16.500000
 20
12.825000
 11
16.500000
 21
5.325000
 39
3
 62
7
  0
LINE
  8
Clamp
  6
CONTINUOUS
 10
15.500000
 20
6.325000
 11
16.500000
 21
6.325000
 39
3
 62
7
  0
LINE
  8
Clamp
  6
CONTINUOUS
 10
15.500000
 20
12.075000
 11
16.500000
 21
12.075000
 39
3
 62
7
  0
ARC
  8
Clamp
  6
CONTINUOUS
 10
16.000000
 20
11.714603
 40
0.186960
 50
48.041557
 51
131.958443
 39
3
 62
7
  0
ARC
  8
Clamp
  6
CONTINUOUS
 10
16.000000
 20
11.992661
 40
0.186960
 50
228.041557
 51
311.958443
 39
3
 62
7
  0
LINE
  8
default
  6
CONTINUOUS
 10
15.875000
 20
11.805701
 11
16.125000
 21
11.805701
 39
3
 62
7
  0
LINE
  8
default
  6
CONTINUOUS
 10
15.875000
 20
11.901563
 11
16.125000
 21
11.901563
 39
3
 62
7
  0
LINE
  8
default
  6
CONTINUOUS
 10
15.875000
 20
11.901563
 11
15.875000
 21
11.805701
 39
3
 62
7
  0
LINE
  8
default
  6
CONTINUOUS
 10
16.125000
 20
11.805701
 11
16.125000
 21
11.901563
 39
3
 62
7
  0
ARC
  8
Clamp
  6
CONTINUOUS
 10
16.000000
 20
11.082758
 40
0.398278
 50
19.471240
 51
160.528760
 39
3
 62
7
  0
ARC
  8
Clamp
  6
CONTINUOUS
 10
16.000000
 20
11.348277
 40
0.398278
 50
199.471240
 51
340.528760
 39
3
 62
7
  0
LINE
  8
default
  6
CONTINUOUS
 10
16.375500
 20
11.481036
 11
16.375500
 21
10.949999
 39
3
 62
7
  0
LINE
  8
default
  6
CONTINUOUS
 10
15.624500
 20
11.481036
 11
16.375500
 21
11.481036
 39
3
 62
7
  0
LINE
  8
default
  6
CONTINUOUS
 10
15.624500
 20
10.949999
 11
16.375500
 21
10.949999
 39
3
 62
7
  0
LINE
  8
default
  6
CONTINUOUS
 10
15.624500
 20
11.481036
 11
15.624500
 21
10.949999
 39
3
 62
7
  0
TEXT
  8
Text
  6
CONTINUOUS
 10
16.000000
 20
14.300000
 40
0.250000
 50
0.000000
 72
0
  7
Courier#0.030000#0.180000
  1
Dimensions in inches
 39
1
 62
7
  0
LINE
  8
default
  6
CONTINUOUS
 10
15.843500
 20
6.433184
 11
15.843500
 21
6.363471
 39
0
 62
7
  0
LINE
  8
default
  6
CONTINUOUS
 10
15.843500
 20
6.363471
 11
16.156500
 21
6.363471
 39
3
 62
7
  0
LINE
  8
default
  6
CONTINUOUS
 10
16.156500
 20
6.433184
 11
16.156500
 21
6.363471
 39
0
 62
7
  0
LINE
  8
default
  6
CONTINUOUS
 10
15.843500
 20
6.433184
 11
16.156500
 21
6.433184
 39
3
 62
7
  0
ARC
  8
Clamp
  6
CONTINUOUS
 10
16.000000
 20
6.064426
 40
0.368758
 50
64.887461
 51
115.112539
 39
3
 62
7
  0
ARC
  8
Clamp
  6
CONTINUOUS
 10
16.000000
 20
6.732229
 40
0.368758
 50
244.887461
 51
295.112539
 39
3
 62
7
  0
TEXT
  8
Text
  6
CONTINUOUS
 10
15.800000
 20
4.500000
 40
0.300000
 50
0.000000
 72
0
  7
romand#0.030000#0.180000
  1
Notes:
 39
1
 62
7
  0
TEXT
  8
Text
  6
CONTINUOUS
 10
15.800000
 20
4.080000
 40
0.300000
 50
0.000000
 72
0
  7
romand#0.030000#0.180000
  1
Material is 6061-T6 or similar
 39
1
 62
7
  0
TEXT
  8
Text
  6
CONTINUOUS
 10
15.800000
 20
3.240000
 40
0.300000
 50
0.000000
 72
0
  7
romand#0.030000#0.180000
  1
.313 hole thread 3/8-16
 39
1
 62
7
  0
TEXT
  8
Text
  6
CONTINUOUS
 10
15.800000
 20
2.820000
 40
0.300000
 50
0.000000
 72
0
  7
romand#0.030000#0.180000
  1
.751 holes ream for press fit
 39
1
 62
7
  0
TEXT
  8
Text
  6
CONTINUOUS
 10
15.800000
 20
2.400000
 40
0.300000
 50
0.000000
 72
0
  7
romand#0.030000#0.180000
  1
.25 holes ream for locating pins
 39
1
 62
7
  0
LINE
  8
Clamp
  6
CONTINUOUS
 10
12.750000
 20
12.500000
 11
12.750000
 21
12.400000
 39
3
 62
7
  0
LINE
  8
Clamp
  6
CONTINUOUS
 10
12.950000
 20
12.548000
 11
12.950000
 21
12.352000
 39
3
 62
7
  0
LINE
  8
Clamp
  6
CONTINUOUS
 10
13.150000
 20
12.500000
 11
13.150000
 21
12.400000
 39
3
 62
7
  0
LINE
  8
Clamp
  6
CONTINUOUS
 10
13.350000
 20
12.548000
 11
13.350000
 21
12.352000
 39
3
 62
7
  0
LINE
  8
Clamp
  6
CONTINUOUS
 10
13.550000
 20
12.500000
 11
13.550000
 21
12.400000
 39
3
 62
7
  0
LINE
  8
Clamp
  6
DASH
 10
9.151545
 20
11.402008
 11
8.259961
 21
12.293592
 39
3
 62
7
  0
LINE
  8
Clamp
  6
DASH
 10
8.797992
 20
11.048455
 11
7.906408
 21
11.940039
 39
3
 62
7
  0
ARC
  8
Clamp
  6
CONTINUOUS
 10
8.083184
 20
15.038356
 40
0.187787
 50
340.282628
 51
199.717372
 39
3
 62
7
  0
ARC
  8
Clamp
  6
CONTINUOUS
 10
8.083184
 20
14.911644
 40
0.187787
 50
160.282628
 51
19.717372
 39
3
 62
7
  0
ARC
  8
Clamp
  6
CONTINUOUS
 10
3.975000
 20
12.028427
 40
0.265165
 50
19.471221
 51
160.528779
 39
3
 62
7
  0
ARC
  8
Clamp
  6
CONTINUOUS
 10
3.975000
 20
12.205204
 40
0.265165
 50
199.471221
 51
340.528779
 39
3
 62
7
  0
CIRCLE
  8
Clamp
  6
CONTINUOUS
 10
11.000000
 20
2.770000
 40
0.100500
 39
3
 62
7
  0
LINE
  8
Clamp
  6
DASH
 10
7.125000
 20
9.300500
 11
8.126757
 21
9.300500
 39
3
 62
7
  0
LINE
  8
Clamp
  6
DASH
 10
7.125000
 20
9.099500
 11
8.126757
 21
9.099500
 39
3
 62
7
  0
CIRCLE
  8
Clamp
  6
CONTINUOUS
 10
4.320000
 20
9.200000
 40
0.100500
 39
3
 62
7
  0
CIRCLE
  8
Clamp
  6
CONTINUOUS
 10
16.000000
 20
12.450000
 40
0.100500
 39
3
 62
7
  0
CIRCLE
  8
Clamp
  6
CONTINUOUS
 10
15.680000
 20
9.200000
 40
0.100500
 39
3
 62
7
  0
LINE
  8
Clamp
  6
DASH
 10
12.625000
 20
12.450000
 11
12.683023
 21
12.550500
 39
3
 62
7
  0
LINE
  8
Clamp
  6
DASH
 10
12.683023
 20
12.550500
 11
13.625000
 21
12.550500
 39
3
 62
7
  0
LINE
  8
Clamp
  6
DASH
 10
12.683023
 20
12.349500
 11
12.625000
 21
12.450000
 39
3
 62
7
  0
LINE
  8
Clamp
  6
DASH
 10
12.683023
 20
12.349500
 11
13.625000
 21
12.349500
 39
3
 62
7
  0
TEXT
  8
Text
  6
CONTINUOUS
 10
15.800000
 20
3.660000
 40
0.300000
 50
0.000000
 72
0
  7
romand#0.030000#0.180000
  1
.201 holes thread 1/4-20
 39
1
 62
7
  0
ARC
  8
HoldDown
  6
CONTINUOUS
 10
13.625000
 20
8.200000
 40
0.250000
 50
270.000000
 51
0.000000
 39
3
 62
221
  0
LINE
  8
HoldDown
  6
CONTINUOUS
 10
13.875000
 20
10.200000
 11
13.875000
 21
8.200000
 39
3
 62
221
  0
LINE
  8
HoldDown
  6
CONTINUOUS
 10
13.625000
 20
12.825000
 11
13.625000
 21
10.450000
 39
3
 62
221
  0
LINE
  8
HoldDown
  6
CONTINUOUS
 10
13.625000
 20
7.950000
 11
13.625000
 21
7.200000
 39
3
 62
221
  0
ARC
  8
HoldDown
  6
CONTINUOUS
 10
13.625000
 20
10.200000
 40
0.250000
 50
0.000000
 51
90.000000
 39
3
 62
221
  0
CIRCLE
  8
Clamp
  6
CONTINUOUS
 10
11.580000
 20
14.975000
 40
0.128500
 39
3
 62
7
  0
LINE
  8
Screws
  6
CONTINUOUS
 10
11.267500
 20
13.075000
 11
11.892500
 21
13.075000
 39
3
 62
1
  0
LINE
  8
Screws
  6
CONTINUOUS
 10
11.267500
 20
13.075000
 11
11.267500
 21
12.958000
 39
3
 62
1
  0
LINE
  8
Screws
  6
CONTINUOUS
 10
11.267500
 20
12.958000
 11
11.892500
 21
12.958000
 39
3
 62
1
  0
LINE
  8
Screws
  6
CONTINUOUS
 10
11.892500
 20
13.075000
 11
11.892500
 21
12.958000
 39
3
 62
1
  0
LINE
  8
Screws
  6
CONTINUOUS
 10
11.392500
 20
12.958000
 11
11.392500
 21
12.825000
 39
3
 62
1
  0
LINE
  8
Screws
  6
CONTINUOUS
 10
11.767500
 20
12.958000
 11
11.767500
 21
12.825000
 39
3
 62
1
  0
LINE
  8
Screws
  6
CONTINUOUS
 10
11.423750
 20
12.825000
 11
11.423750
 21
12.437000
 39
3
 62
1
  0
LINE
  8
Screws
  6
CONTINUOUS
 10
11.423750
 20
12.437000
 11
11.736250
 21
12.437000
 39
3
 62
1
  0
LINE
  8
Screws
  6
CONTINUOUS
 10
11.451500
 20
12.600000
 11
11.708500
 21
12.600000
 39
3
 62
1
  0
LINE
  8
Screws
  6
CONTINUOUS
 10
11.423750
 20
12.700000
 11
11.736250
 21
12.700000
 39
3
 62
1
  0
LINE
  8
Screws
  6
CONTINUOUS
 10
11.423750
 20
12.500000
 11
11.736250
 21
12.500000
 39
3
 62
1
  0
LINE
  8
Screws
  6
CONTINUOUS
 10
11.736250
 20
12.825000
 11
11.736250
 21
12.437000
 39
3
 62
1
  0
CIRCLE
  8
Screws
  6
CONTINUOUS
 10
11.580000
 20
14.975000
 40
0.312500
 39
3
 62
1
  0
CIRCLE
  8
Screws
  6
DASH
 10
11.580000
 20
14.975000
 40
0.187500
 39
3
 62
1
  0
LINE
  8
Clamp
  6
DASH
 10
11.451500
 20
12.825000
 11
11.451500
 21
12.075000
 39
3
 62
7
  0
LINE
  8
Clamp
  6
DASH
 10
11.708500
 20
12.825000
 11
11.708500
 21
12.075000
 39
3
 62
7
  0
LINE
  8
Clamp
  6
DASH
 10
8.115004
 20
11.264752
 11
7.971681
 21
11.226349
 39
3
 62
7
  0
LINE
  8
Clamp
  6
DASH
 10
8.153408
 20
11.408075
 11
8.115004
 21
11.264752
 39
3
 62
7
  0
LINE
  8
Clamp
  6
DASH
 10
8.153408
 20
11.408075
 11
7.763926
 21
11.797557
 39
3
 62
7
  0
ARC
  8
Clamp
  6
CONTINUOUS
 10
3.975000
 20
11.661262
 40
0.136295
 50
19.471221
 51
160.528779
 39
3
 62
7
  0
ARC
  8
Clamp
  6
CONTINUOUS
 10
3.975000
 20
11.752125
 40
0.136295
 50
199.471221
 51
340.528779
 39
3
 62
7
  0
ARC
  8
Clamp
  6
CONTINUOUS
 10
7.627631
 20
14.975000
 40
0.136295
 50
289.471221
 51
70.528779
 39
3
 62
7
  0
ARC
  8
Clamp
  6
CONTINUOUS
 10
7.718494
 20
14.975000
 40
0.136295
 50
109.471221
 51
250.528779
 39
3
 62
7
  0
TEXT
  8
Text
  6
CONTINUOUS
 10
14.500000
 20
14.860000
 40
0.300000
 50
0.000000
 72
0
  7
Courier#0.030000#0.180000
  1
v1.3   3/26/03
 39
1
 62
7
  0
LINE
  8
Clamp
  6
CONTINUOUS
 10
11.500000
 20
12.750000
 11
11.660000
 21
12.750000
 39
3
 62
7
  0
LINE
  8
Clamp
  6
CONTINUOUS
 10
11.451500
 20
12.600000
 11
11.708500
 21
12.600000
 39
3
 62
7
  0
LINE
  8
Clamp
  6
CONTINUOUS
 10
11.500000
 20
12.450000
 11
11.660000
 21
12.450000
 39
3
 62
7
  0
LINE
  8
Clamp
  6
CONTINUOUS
 10
11.451500
 20
12.300000
 11
11.708500
 21
12.300000
 39
3
 62
7
  0
LINE
  8
Clamp
  6
CONTINUOUS
 10
11.500000
 20
12.150000
 11
11.660000
 21
12.150000
 39
3
 62
7
  0
LINE
  8
Clamp
  6
CONTINUOUS
 10
7.669527
 20
11.597092
 11
7.782664
 21
11.710229
 39
3
 62
7
  0
LINE
  8
Clamp
  6
CONTINUOUS
 10
7.741298
 20
11.456731
 11
7.923025
 21
11.638458
 39
3
 62
7
  0
LINE
  8
Clamp
  6
CONTINUOUS
 10
7.881659
 20
11.384960
 11
7.994796
 21
11.498097
 39
3
 62
7
  0
LINE
  8
Clamp
  6
DASH
 10
7.971681
 20
11.226349
 11
7.582199
 21
11.615830
 39
3
 62
7
  0
LINE
  8
Clamp
  6
CONTINUOUS
 10
7.953430
 20
11.244599
 11
8.135157
 21
11.426326
 39
3
 62
7
  0
TEXT
  8
Text
  6
CONTINUOUS
 10
15.800000
 20
1.200000
 40
0.300000
 50
0.000000
 72
0
  7
romand#0.030000#0.180000
  1
this is only required for one clamp
 39
0
 62
7
  0
TEXT
  8
Text
  6
CONTINUOUS
 10
15.800000
 20
1.600000
 40
0.300000
 50
0.000000
 72
0
  7
romand#0.030000#0.180000
  1
v1.1 added a 22.5
 39
1
 62
7
  0
TEXT
  8
Text
  6
CONTINUOUS
 10
15.800000
 20
2.000000
 40
0.300000
 50
0.000000
 72
0
  7
romand#0.030000#0.180000
  1
.257 holes thread 5/16-18 (2 places)
 39
0
 62
7
  0
TEXT
  8
Text
  6
CONTINUOUS
 10
18.350000
 20
1.800000
 40
0.150000
 50
0.000000
 72
0
  7
romand#0.030000#0.180000
  1
o
 39
0
 62
7
  0
TEXT
  8
Text
  6
CONTINUOUS
 10
18.550000
 20
1.600000
 40
0.300000
 50
0.000000
 72
0
  7
romand#0.030000#0.180000
  1
locating hole,
 39
0
 62
7
  0
DIMENSION
  8
Dimension
  6
CONTINUOUS
  1
;;
 10
2.000000
 20
12.825000
 13
3.500000
 23
12.825000
 14
3.500000
 24
5.325000
 50
90.000000
 70
0
 39
1
 62
7
  0
DIMENSION
  8
Dimension
  6
CONTINUOUS
  1
;;
 10
3.500000
 20
3.700000
 13
3.500000
 23
5.325000
 14
4.500000
 24
5.325000
 50
0.000000
 70
0
 39
1
 62
7
  0
DIMENSION
  8
Dimension
  6
CONTINUOUS
  1
;;
 10
5.500000
 20
5.325000
 13
4.500000
 23
5.325000
 14
5.500000
 24
9.200000
 50
90.000000
 70
0
 39
1
 62
7
  0
DIMENSION
  8
Dimension
  6
CONTINUOUS
  1
;;
 10
4.500000
 20
10.000000
 13
4.500000
 23
10.000000
 14
4.320000
 24
10.000000
 50
0.000000
 70
0
 39
1
 62
7
  0
DIMENSION
  8
Dimension
  6
CONTINUOUS
  1
;;
 10
11.000000
 20
9.200000
 15
9.500000
 25
7.200000
 40
2.875000
 70
4
 39
1
 62
7
  0
DIMENSION
  8
Dimension
  6
CONTINUOUS
  1
;;
 10
11.000000
 20
4.300000
 13
11.000000
 23
5.425000
 14
10.375000
 24
5.425000
 50
0.000000
 70
0
 39
1
 62
7
  0
DIMENSION
  8
Dimension
  6
CONTINUOUS
  1
;;
 10
11.000000
 20
3.300000
 13
11.000000
 23
4.925000
 14
13.000000
 24
4.925000
 50
0.000000
 70
0
 39
1
 62
7
  0
DIMENSION
  8
Dimension
  6
CONTINUOUS
  1
;;
 10
7.750000
 20
3.300000
 13
7.750000
 23
5.325000
 14
10.375000
 24
5.325000
 50
0.000000
 70
0
 39
1
 62
7
  0
DIMENSION
  8
Dimension
  6
CONTINUOUS
  1
;;
 10
14.500000
 20
2.950000
 13
13.625000
 23
2.950000
 14
13.625000
 24
2.770000
 50
90.000000
 70
0
 39
1
 62
7
  0
DIMENSION
  8
Dimension
  6
CONTINUOUS
  1
ø;-.000;+.001
 10
13.125000
 20
0.700000
 13
13.125000
 23
2.450000
 14
12.875000
 24
2.450000
 50
0.000000
 70
0
 39
1
 62
7
  0
DIMENSION
  8
Dimension
  6
CONTINUOUS
  1
ø;;
 10
10.218750
 20
0.700000
 13
10.218750
 23
2.450000
 14
10.531250
 24
2.450000
 50
0.000000
 70
0
 39
1
 62
7
  0
DIMENSION
  8
Dimension
  6
CONTINUOUS
  1
;;
 10
6.800000
 20
2.950000
 13
7.125000
 23
2.950000
 14
7.125000
 24
2.450000
 50
90.000000
 70
0
 39
1
 62
7
  0
DIMENSION
  8
Dimension
  6
CONTINUOUS
  1
ø;-.000;+.001
 10
7.625000
 20
0.700000
 13
7.625000
 23
2.450000
 14
7.875000
 24
2.450000
 50
0.000000
 70
0
 39
1
 62
7
  0
DIMENSION
  8
Dimension
  6
CONTINUOUS
  1
ø;-.0003;+.0003
 10
11.375500
 20
13.200000
 13
11.375500
 23
12.825000
 14
10.624500
 24
12.825000
 50
0.000000
 70
0
 39
1
 62
7
  0
DIMENSION
  8
Dimension
  6
CONTINUOUS
  1
;;
 10
6.600000
 20
5.325000
 13
7.125000
 23
5.325000
 14
7.625000
 24
6.075000
 50
90.000000
 70
0
 39
1
 62
7
  0
DIMENSION
  8
Dimension
  6
CONTINUOUS
  1
;;
 10
6.500000
 20
14.975000
 13
7.125000
 23
14.975000
 14
7.125000
 24
15.450000
 50
90.000000
 70
0
 39
1
 62
7
  0
DIMENSION
  8
Dimension
  6
CONTINUOUS
  1
;;
 10
7.125000
 20
15.800000
 13
7.125000
 23
15.450000
 14
13.625000
 24
15.450000
 50
0.000000
 70
0
 39
1
 62
7
  0
LINE
  8
Dimension
  6
CONTINUOUS
 10
11.000000
 20
8.733334
 11
11.000000
 21
7.068646
 39
1
 62
7
  0
LINE
  8
Dimension
  6
CONTINUOUS
 10
11.121015
 20
8.907844
 11
11.815634
 21
7.230885
 39
1
 62
7
  0
ARC
  8
Dimension
  6
CONTINUOUS
 10
11.000000
 20
9.200000
 40
1.964688
 50
270.000000
 51
292.500000
 39
1
 62
7
  0
LINE
  8
Dimension
  6
CONTINUOUS
 10
11.751854
 20
7.384865
 11
11.553515
 21
7.232674
 39
1
 62
7
  0
LINE
  8
Dimension
  6
CONTINUOUS
 10
11.751854
 20
7.384865
 11
11.503992
 21
7.352233
 39
1
 62
7
  0
LINE
  8
Dimension
  6
CONTINUOUS
 10
11.000000
 20
7.235312
 11
11.241481
 21
7.300016
 39
1
 62
7
  0
LINE
  8
Dimension
  6
CONTINUOUS
 10
11.000000
 20
7.235312
 11
11.241481
 21
7.170607
 39
1
 62
7
  0
TEXT
  8
Dimension
  6
CONTINUOUS
 10
11.350000
 20
8.300000
 40
0.400000
 50
281.250000
 72
1
  7
Normal_ro#1.736117#0.120000#0.240000
  1
22.5°
 39
1
 62
7
  0
LINE
  8
Dimension
  6
CONTINUOUS
 10
9.338833
 20
12.883117
 11
9.184108
 21
13.256658
 39
1
 62
7
  0
LINE
  8
Dimension
  6
CONTINUOUS
 10
9.570265
 20
12.978979
 11
9.415539
 21
13.352520
 39
1
 62
7
  0
LINE
  8
Dimension
  6
CONTINUOUS
 10
9.479320
 20
13.198541
 11
9.677658
 21
13.350731
 39
1
 62
7
  0
LINE
  8
Dimension
  6
CONTINUOUS
 10
9.479320
 20
13.198541
 11
9.727181
 21
13.231172
 39
1
 62
7
  0
LINE
  8
Dimension
  6
CONTINUOUS
 10
9.247888
 20
13.102679
 11
9.049550
 21
12.950488
 39
1
 62
7
  0
LINE
  8
Dimension
  6
CONTINUOUS
 10
9.247888
 20
13.102679
 11
9.000027
 21
13.070047
 39
1
 62
7
  0
LINE
  8
Dimension
  6
CONTINUOUS
 10
8.901664
 20
12.959268
 11
9.825775
 21
13.342047
 39
1
 62
7
  0
TEXT
  8
Dimension
  6
CONTINUOUS
 10
8.819893
 20
13.267166
 40
0.400000
 50
22.500000
 72
1
  7
Normal#0.080000#0.240000
  1
ø0.25
 39
1
 62
7
  0
TEXT
  8
Dimension
  6
CONTINUOUS
 10
9.323706
 20
13.723257
 40
0.228571
 50
22.500000
 72
0
  7
Normal#0.045714#0.137143
  1
+.001
 39
1
 62
7
  0
TEXT
  8
Dimension
  6
CONTINUOUS
 10
9.433044
 20
13.459291
 40
0.228571
 50
22.500000
 72
0
  7
Normal#0.045714#0.137143
  1
-.000
 39
1
 62
7
  0
DIMENSION
  8
Dimension
  6
CONTINUOUS
  1
;;
 10
17.500000
 20
5.325000
 13
16.500000
 23
5.325000
 14
16.500000
 24
6.325000
 50
90.000000
 70
0
 39
1
 62
7
  0
DIMENSION
  8
Dimension
  6
CONTINUOUS
  1
;;
 10
17.500000
 20
12.825000
 13
16.500000
 23
12.825000
 14
16.500000
 24
12.075000
 50
90.000000
 70
0
 39
1
 62
7
  0
DIMENSION
  8
Dimension
  6
CONTINUOUS
  1
;;
 10
17.500000
 20
6.325000
 13
16.500000
 23
6.325000
 14
16.500000
 24
12.075000
 50
90.000000
 70
0
 39
1
 62
7
  0
DIMENSION
  8
Dimension
  6
CONTINUOUS
  1
;;
 10
15.000000
 20
12.450000
 13
15.500000
 23
12.450000
 14
15.500000
 24
12.825000
 50
90.000000
 70
0
 39
1
 62
7
  0
DIMENSION
  8
Dimension
  6
CONTINUOUS
  1
;;
 10
15.500000
 20
13.500000
 13
15.500000
 23
12.825000
 14
16.000000
 24
12.825000
 50
0.000000
 70
0
 39
1
 62
7
  0
DIMENSION
  8
Dimension
  6
CONTINUOUS
  1
;;
 10
14.500000
 20
9.200000
 13
11.000000
 23
9.200000
 14
13.625000
 24
6.325000
 50
90.000000
 70
0
 39
1
 62
7
  0
DIMENSION
  8
Dimension
  6
CONTINUOUS
  1
;;
 10
13.625000
 20
11.000000
 13
13.625000
 23
12.075000
 14
12.625000
 24
12.450000
 50
0.000000
 70
0
 39
1
 62
7
  0
DIMENSION
  8
Dimension
  6
CONTINUOUS
  1
;;
 10
13.625000
 20
10.000000
 13
13.625000
 23
12.075000
 14
11.000000
 24
12.075000
 50
0.000000
 70
0
 39
1
 62
7
  0
DIMENSION
  8
Dimension
  6
CONTINUOUS
  1
ø;;
 10
11.100500
 20
1.200000
 13
11.100500
 23
2.770000
 14
10.899500
 24
2.770000
 50
0.000000
 70
0
 39
1
 62
7
  0
DIMENSION
  8
Dimension
  6
CONTINUOUS
  1
ø;;
 10
6.600000
 20
9.099500
 13
7.125000
 23
9.099500
 14
7.125000
 24
9.300500
 50
90.000000
 70
0
 39
1
 62
7
  0
DIMENSION
  8
Dimension
  6
CONTINUOUS
  1
ø;;
 10
18.500000
 20
12.349500
 13
16.000000
 23
12.349500
 14
16.000000
 24
12.550500
 50
90.000000
 70
0
 39
1
 62
7
  0
DIMENSION
  8
Dimension
  6
CONTINUOUS
  1
ø;+.001;-.000
 10
6.823224
 20
13.023224
 13
7.906408
 23
11.940039
 14
8.259961
 24
12.293592
 70
1
 39
1
 62
7
  0
DIMENSION
  8
Dimension
  6
CONTINUOUS
  1
0.580;;
 10
11.580000
 20
14.300000
 13
11.580000
 23
14.975000
 14
11.000000
 24
14.975000
 50
0.000000
 70
0
 39
1
 62
7
  0
DIMENSION
  8
Dimension
  6
CONTINUOUS
  1
ø;;
 10
11.708500
 20
15.700000
 13
11.708500
 23
14.975000
 14
11.451500
 24
14.975000
 70
1
 39
1
 62
7
  0
DIMENSION
  8
Dimension
  6
CONTINUOUS
  1
;;
 10
8.383185
 20
12.416816
 13
8.083184
 23
12.116815
 14
8.967068
 24
11.232932
 70
1
 39
1
 62
7
  0
LINE
  8
Dimension
  6
CONTINUOUS
 10
7.390363
 20
11.423994
 11
7.265127
 21
11.298758
 39
1
 62
7
  0
LINE
  8
Dimension
  6
CONTINUOUS
 10
7.125000
 20
10.693908
 11
7.125000
 21
10.960462
 39
1
 62
7
  0
ARC
  8
Dimension
  6
CONTINUOUS
 10
7.125000
 20
11.158631
 40
0.364835
 50
45.000000
 51
270.000000
 39
1
 62
7
  0
LINE
  8
Dimension
  6
CONTINUOUS
 10
7.125000
 20
10.793796
 11
6.883519
 21
10.729091
 39
1
 62
7
  0
LINE
  8
Dimension
  6
CONTINUOUS
 10
7.125000
 20
10.793796
 11
6.883519
 21
10.858501
 39
1
 62
7
  0
LINE
  8
Dimension
  6
CONTINUOUS
 10
7.382977
 20
11.416608
 11
7.166471
 21
11.541608
 39
1
 62
7
  0
LINE
  8
Dimension
  6
CONTINUOUS
 10
7.382977
 20
11.416608
 11
7.257977
 21
11.633115
 39
1
 62
7
  0
DIMENSION
  8
Dimension
  6
CONTINUOUS
  1
;;
 10
6.333184
 20
10.366815
 13
7.673063
 23
11.706694
 14
8.115004
 24
11.264752
 70
1
 39
1
 62
7
  0
TEXT
  8
Dimension
  6
CONTINUOUS
 10
7.125000
 20
11.158631
 40
0.400000
 50
112.500000
 72
1
  7
Normal_ri#0.593407#0.080000#0.240000
  1
225°
 39
1
 62
7
  0
LINE
  8
Dimension
  6
CONTINUOUS
 10
8.089532
 20
11.108498
 11
8.766866
 21
10.431164
 39
1
 62
7
  0
LINE
  8
Dimension
  6
CONTINUOUS
 10
8.271258
 20
11.290224
 11
8.948592
 21
10.612891
 39
1
 62
7
  0
LINE
  8
Dimension
  6
CONTINUOUS
 10
7.498000
 20
9.398000
 11
9.095906
 21
10.995906
 39
1
 62
7
  0
LINE
  8
Dimension
  6
CONTINUOUS
 10
8.830741
 20
10.730741
 11
8.955741
 21
10.947248
 39
1
 62
7
  0
LINE
  8
Dimension
  6
CONTINUOUS
 10
8.830741
 20
10.730741
 11
9.047248
 21
10.855741
 39
1
 62
7
  0
LINE
  8
Dimension
  6
CONTINUOUS
 10
8.649015
 20
10.549015
 11
8.524015
 21
10.332508
 39
1
 62
7
  0
LINE
  8
Dimension
  6
CONTINUOUS
 10
8.649015
 20
10.549015
 11
8.432508
 21
10.424015
 39
1
 62
7
  0
TEXT
  8
Dimension
  6
CONTINUOUS
 10
7.923495
 20
10.096743
 40
0.400000
 50
45.000000
 72
1
  7
Normal#0.080000#0.240000
  1
ø0.257
 39
1
 62
7
  0
LINE
  8
Dimension
  6
CONTINUOUS
 10
10.230229
 20
9.969771
 11
10.171516
 21
10.028484
 39
1
 62
7
  0
LINE
  8
Dimension
  6
CONTINUOUS
 10
9.900000
 20
9.200000
 11
10.161678
 21
9.200000
 39
1
 62
7
  0
ARC
  8
Dimension
  6
CONTINUOUS
 10
11.000000
 20
9.200000
 40
1.004988
 50
135.000000
 51
180.000000
 39
1
 62
7
  0
LINE
  8
Dimension
  6
CONTINUOUS
 10
9.995012
 20
9.200000
 11
9.930308
 21
9.441481
 39
1
 62
7
  0
LINE
  8
Dimension
  6
CONTINUOUS
 10
9.995012
 20
9.200000
 11
10.059717
 21
9.441481
 39
1
 62
7
  0
LINE
  8
Dimension
  6
CONTINUOUS
 10
10.289366
 20
9.910634
 11
10.164366
 21
9.694127
 39
1
 62
7
  0
LINE
  8
Dimension
  6
CONTINUOUS
 10
10.289366
 20
9.910634
 11
10.072860
 21
9.785634
 39
1
 62
7
  0
LINE
  8
Dimension
  6
CONTINUOUS
 10
8.674797
 20
10.704959
 11
9.482729
 21
9.897027
 39
1
 62
7
  0
LINE
  8
Dimension
  6
CONTINUOUS
 10
9.084919
 20
11.115081
 11
9.892851
 21
10.307149
 39
1
 62
7
  0
LINE
  8
Dimension
  6
CONTINUOUS
 10
8.641270
 20
9.291270
 11
10.040165
 21
10.690165
 39
1
 62
7
  0
LINE
  8
Dimension
  6
CONTINUOUS
 10
9.775000
 20
10.425000
 11
9.900000
 21
10.641506
 39
1
 62
7
  0
LINE
  8
Dimension
  6
CONTINUOUS
 10
9.775000
 20
10.425000
 11
9.991506
 21
10.550000
 39
1
 62
7
  0
LINE
  8
Dimension
  6
CONTINUOUS
 10
9.364878
 20
10.014878
 11
9.239878
 21
9.798372
 39
1
 62
7
  0
LINE
  8
Dimension
  6
CONTINUOUS
 10
9.364878
 20
10.014878
 11
9.148372
 21
9.889878
 39
1
 62
7
  0
TEXT
  8
Dimension
  6
CONTINUOUS
 10
8.853061
 20
9.676310
 40
0.400000
 50
45.000000
 72
1
  7
Normal#0.080000#0.240000
  1
0.58
 39
1
 62
7
  0
TEXT
  8
Dimension
  6
CONTINUOUS
 10
11.100000
 20
9.250000
 40
0.400000
 50
157.500000
 72
1
  7
Normal_ri#1.233559#0.080000#0.240000
  1
45°
 39
1
 62
7
  0
LINE
  8
Dimension
  6
DASHDOT
 10
4.320000
 20
10.200000
 11
4.320000
 21
8.700000
 39
1
 62
7
  0
LINE
  8
Dimension
  6
DASHDOT
 10
11.500000
 20
8.700000
 11
7.750000
 21
12.450000
 39
1
 62
7
  0
LINE
  8
Dimension
  6
DASHDOT
 10
10.375000
 20
6.700000
 11
10.375000
 21
1.700000
 39
1
 62
7
  0
LINE
  8
Dimension
  6
DASHDOT
 10
13.000000
 20
6.200000
 11
13.000000
 21
1.700000
 39
1
 62
7
  0
LINE
  8
Dimension
  6
DASHDOT
 10
7.750000
 20
6.200000
 11
7.750000
 21
1.700000
 39
1
 62
7
  0
LINE
  8
Dimension
  6
DASHDOT
 10
6.500000
 20
2.450000
 11
15.000000
 21
2.450000
 39
1
 62
7
  0
LINE
  8
Dimension
  6
DASHDOT
 10
10.700000
 20
2.770000
 11
15.000000
 21
2.770000
 39
1
 62
7
  0
LINE
  8
Dimension
  6
DASHDOT
 10
8.062500
 20
15.700000
 11
8.062500
 21
14.200000
 39
1
 62
7
  0
LINE
  8
Dimension
  6
DASHDOT
 10
11.000000
 20
15.700000
 11
11.000000
 21
1.700000
 39
1
 62
7
  0
LINE
  8
Dimension
  6
DASHDOT
 10
11.270598
 20
8.546719
 11
9.425988
 21
13.000000
 39
1
 62
7
  0
LINE
  8
Dimension
  6
DASHDOT
 10
16.000000
 20
13.500000
 11
16.000000
 21
12.200000
 39
1
 62
7
  0
LINE
  8
Dimension
  6
DASHDOT
 10
15.680000
 20
9.500000
 11
15.680000
 21
8.900000
 39
1
 62
7
  0
LINE
  8
Dimension
  6
DASHDOT
 10
12.500000
 20
12.450000
 11
16.400000
 21
12.450000
 39
1
 62
7
  0
LINE
  8
Dimension
  6
DASHDOT
 10
6.300000
 20
14.975000
 11
11.800000
 21
14.975000
 39
1
 62
7
  0
LINE
  8
Dimension
  6
DASHDOT
 10
8.564647
 20
10.815110
 11
7.566997
 21
11.812760
 39
1
 62
7
  0
LINE
  8
Dimension
  6
DASHDOT
 10
11.580000
 20
15.700000
 11
11.580000
 21
11.950000
 39
1
 62
7
  0
LINE
  8
Dimension
  6
DASHDOT
 10
4.000000
 20
9.200000
 11
15.900000
 21
9.200000
 39
1
 62
7
  0
ENDSEC
  0
EOF
