  0
SECTION
  2
HEADER
  9
$LIMMIN
 10
0.000000
 20
0.000000
  9
$LIMMAX
 10
21.375072
 20
15.800000
  9
$EXTMIN
 10
0.000000
 20
0.000000
  9
$EXTMAX
 10
21.375072
 20
15.800000
  9
$ANGBASE
 50
0.000000
  9
$ANGDIR
 70
0
  9
$INSUNITS
 70
1
  9
$DIMALT
 70
1
  9
$DIMLUNIT
 70
2
  9
$DIMASZ
 40
0.125000
  9
$DIMTXT
 40
0.200000
  9
$DIMRND
 40
0.001000
  9
$DIMEXE
 40
0.083333
  9
$DIMEXO
 40
0.083333
  9
$DIMAUNIT
 70
0
  9
$DIMADEC
 70
2
  9
$GRIDUNIT
 10
0.001000
 20
0.001000
  9
$PLIMMIN
 10
0.000000
 20
0.000000
  9
$PLIMMAX
 10
11.000000
 20
8.500000
  9
$PSVPSCALE
 40
0.500000
  0
ENDSEC
  0
SECTION
  2
TABLES
  0
TABLE
  2
LTYPE
 70
     1
  0
LTYPE
  2
CONTINUOUS
 70
    64
  3
Ausgez
 72
    65
 73
  0
 40
0.000000
  0
ENDTAB
  0
TABLE
  2
LAYER
 70
     1
  0
LAYER
  2
Clamp
 70
    64
 62
7
  6
CONTINUOUS
  0
LAYER
  2
Layout
 70
    64
 62
7
  6
CONTINUOUS
  0
LAYER
  2
Dimension
 70
    64
 62
7
  6
CONTINUOUS
  0
LAYER
  2
Plate
 70
    64
 62
221
  6
CONTINUOUS
  0
LAYER
  2
Bracket
 70
    64
 62
1
  6
CONTINUOUS
  0
LAYER
  2
HoldDown
 70
    64
 62
221
  6
CONTINUOUS
  0
LAYER
  2
Bracket Dimension
 70
    64
 62
7
  6
CONTINUOUS
  0
LAYER
  2
Text
 70
    64
 62
7
  6
CONTINUOUS
  0
ENDTAB
  0
ENDSEC
  0
SECTION
  2
BLOCKS
  0
ENDSEC
  0
SECTION
  2
ENTITIES
  0
CIRCLE
  8
Layout
  6
CONTINUOUS
 10
9.000000
 20
8.500000
 40
2.625000
 39
0
 62
7
  0
LINE
  8
Plate
  6
CONTINUOUS
 10
12.625000
 20
8.500000
 11
12.625000
 21
7.875000
 39
3
 62
221
  0
LINE
  8
Clamp
  6
CONTINUOUS
 10
5.125000
 20
11.125000
 11
5.125000
 21
4.625000
 39
3
 62
7
  0
LINE
  8
Clamp
  6
CONTINUOUS
 10
5.125000
 20
11.125000
 11
6.125000
 21
11.125000
 39
3
 62
7
  0
LINE
  8
Clamp
  6
CONTINUOUS
 10
11.875000
 20
11.125000
 11
12.625000
 21
11.125000
 39
3
 62
7
  0
LINE
  8
Clamp
  6
CONTINUOUS
 10
11.875000
 20
11.125000
 11
11.875000
 21
8.500000
 39
3
 62
7
  0
LINE
  8
Clamp
  6
CONTINUOUS
 10
6.125000
 20
11.125000
 11
6.125000
 21
8.500000
 39
3
 62
7
  0
ARC
  8
Clamp
  6
CONTINUOUS
 10
9.000000
 20
8.500000
 40
2.875000
 50
180.000000
 51
0.000000
 39
3
 62
7
  0
LINE
  8
Clamp
  6
CONTINUOUS
 10
12.625000
 20
11.125000
 11
12.625000
 21
4.625000
 39
3
 62
7
  0
LINE
  8
Clamp
  6
CONTINUOUS
 10
5.125000
 20
4.625000
 11
12.625000
 21
4.625000
 39
3
 62
7
  0
LINE
  8
Bracket
  6
CONTINUOUS
 10
15.625000
 20
7.875000
 11
15.625000
 21
6.875000
 39
3
 62
1
  0
LINE
  8
Bracket
  6
CONTINUOUS
 10
12.625000
 20
7.875000
 11
15.625000
 21
7.875000
 39
3
 62
1
  0
LINE
  8
Bracket
  6
CONTINUOUS
 10
12.625000
 20
7.875000
 11
12.625000
 21
4.625000
 39
3
 62
1
  0
LINE
  8
Bracket
  6
CONTINUOUS
 10
13.125000
 20
6.875000
 11
13.125000
 21
4.625000
 39
3
 62
1
  0
LINE
  8
Bracket
  6
CONTINUOUS
 10
12.625000
 20
4.625000
 11
13.125000
 21
4.625000
 39
3
 62
1
  0
LINE
  8
Bracket
  6
DASH
 10
12.625000
 20
6.500000
 11
13.125000
 21
6.500000
 39
3
 62
1
  0
LINE
  8
Bracket
  6
DASH
 10
12.625000
 20
6.250000
 11
13.125000
 21
6.250000
 39
3
 62
1
  0
LINE
  8
Bracket
  6
DASH
 10
12.625000
 20
5.250000
 11
13.125000
 21
5.250000
 39
3
 62
1
  0
LINE
  8
Bracket
  6
DASH
 10
12.625000
 20
5.000000
 11
13.125000
 21
5.000000
 39
3
 62
1
  0
LINE
  8
Bracket
  6
CONTINUOUS
 10
13.125000
 20
6.875000
 11
15.625000
 21
6.875000
 39
3
 62
1
  0
LINE
  8
Bracket
  6
CONTINUOUS
 10
15.080000
 20
7.450000
 11
15.170000
 21
7.450000
 39
3
 62
1
  0
LINE
  8
Bracket
  6
CONTINUOUS
 10
15.080000
 20
7.150000
 11
15.170000
 21
7.150000
 39
3
 62
1
  0
LINE
  8
Bracket
  6
CONTINUOUS
 10
15.027000
 20
7.000000
 11
15.223000
 21
7.000000
 39
3
 62
1
  0
LINE
  8
Bracket
  6
CONTINUOUS
 10
15.027000
 20
7.300000
 11
15.223000
 21
7.300000
 39
3
 62
1
  0
LINE
  8
Bracket
  6
CONTINUOUS
 10
13.580000
 20
7.450000
 11
13.670000
 21
7.450000
 39
3
 62
1
  0
LINE
  8
Bracket
  6
CONTINUOUS
 10
13.580000
 20
7.150000
 11
13.670000
 21
7.150000
 39
3
 62
1
  0
LINE
  8
Bracket
  6
CONTINUOUS
 10
13.527000
 20
7.000000
 11
13.723000
 21
7.000000
 39
3
 62
1
  0
LINE
  8
Bracket
  6
CONTINUOUS
 10
13.527000
 20
7.300000
 11
13.723000
 21
7.300000
 39
3
 62
1
  0
LINE
  8
Clamp
  6
DASH
 10
11.681580
 20
6.277000
 11
11.625000
 21
6.375000
 39
3
 62
7
  0
LINE
  8
Clamp
  6
DASH
 10
11.625000
 20
6.375000
 11
11.681580
 21
6.473000
 39
3
 62
7
  0
LINE
  8
Clamp
  6
DASH
 10
11.681580
 20
5.027000
 11
11.625000
 21
5.125000
 39
3
 62
7
  0
LINE
  8
Clamp
  6
DASH
 10
11.625000
 20
5.125000
 11
11.681580
 21
5.223000
 39
3
 62
7
  0
LINE
  8
Clamp
  6
CONTINUOUS
 10
11.750000
 20
6.420000
 11
11.750000
 21
6.330000
 39
3
 62
7
  0
LINE
  8
Clamp
  6
CONTINUOUS
 10
12.050000
 20
6.420000
 11
12.050000
 21
6.330000
 39
3
 62
7
  0
LINE
  8
Clamp
  6
CONTINUOUS
 10
12.200000
 20
6.473000
 11
12.200000
 21
6.277000
 39
3
 62
7
  0
LINE
  8
Clamp
  6
CONTINUOUS
 10
11.900000
 20
6.473000
 11
11.900000
 21
6.277000
 39
3
 62
7
  0
LINE
  8
Clamp
  6
DASH
 10
5.125000
 20
8.598000
 11
6.125000
 21
8.598000
 39
3
 62
7
  0
LINE
  8
Clamp
  6
DASH
 10
5.125000
 20
8.402000
 11
6.126671
 21
8.402000
 39
3
 62
7
  0
LINE
  8
Clamp
  6
DASH
 10
8.902000
 20
5.626671
 11
8.902000
 21
4.625000
 39
3
 62
7
  0
LINE
  8
Clamp
  6
DASH
 10
9.098000
 20
5.626671
 11
9.098000
 21
4.625000
 39
3
 62
7
  0
LINE
  8
Clamp
  6
DASH
 10
11.873329
 20
8.402000
 11
12.625000
 21
8.402000
 39
3
 62
7
  0
LINE
  8
Clamp
  6
DASH
 10
11.875000
 20
8.598000
 11
12.625000
 21
8.598000
 39
3
 62
7
  0
LINE
  8
Clamp
  6
CONTINUOUS
 10
12.050000
 20
8.545000
 11
12.050000
 21
8.455000
 39
3
 62
7
  0
LINE
  8
Clamp
  6
CONTINUOUS
 10
12.350000
 20
8.545000
 11
12.350000
 21
8.455000
 39
3
 62
7
  0
LINE
  8
Clamp
  6
CONTINUOUS
 10
12.500000
 20
8.598000
 11
12.500000
 21
8.402000
 39
3
 62
7
  0
LINE
  8
Clamp
  6
CONTINUOUS
 10
12.200000
 20
8.598000
 11
12.200000
 21
8.402000
 39
3
 62
7
  0
LINE
  8
Clamp
  6
CONTINUOUS
 10
5.250000
 20
8.545000
 11
5.250000
 21
8.455000
 39
3
 62
7
  0
LINE
  8
Clamp
  6
CONTINUOUS
 10
5.550000
 20
8.545000
 11
5.550000
 21
8.455000
 39
3
 62
7
  0
LINE
  8
Clamp
  6
CONTINUOUS
 10
5.850000
 20
8.545000
 11
5.850000
 21
8.455000
 39
3
 62
7
  0
LINE
  8
Clamp
  6
CONTINUOUS
 10
6.000000
 20
8.598000
 11
6.000000
 21
8.402000
 39
3
 62
7
  0
LINE
  8
Clamp
  6
CONTINUOUS
 10
5.700000
 20
8.598000
 11
5.700000
 21
8.402000
 39
3
 62
7
  0
LINE
  8
Clamp
  6
CONTINUOUS
 10
5.400000
 20
8.598000
 11
5.400000
 21
8.402000
 39
3
 62
7
  0
LINE
  8
Clamp
  6
CONTINUOUS
 10
9.045000
 20
5.500000
 11
8.955000
 21
5.500000
 39
3
 62
7
  0
LINE
  8
Clamp
  6
CONTINUOUS
 10
9.045000
 20
5.200000
 11
8.955000
 21
5.200000
 39
3
 62
7
  0
LINE
  8
Clamp
  6
CONTINUOUS
 10
9.045000
 20
4.900000
 11
8.955000
 21
4.900000
 39
3
 62
7
  0
LINE
  8
Clamp
  6
CONTINUOUS
 10
9.098000
 20
4.750000
 11
8.902000
 21
4.750000
 39
3
 62
7
  0
LINE
  8
Clamp
  6
CONTINUOUS
 10
9.098000
 20
5.050000
 11
8.902000
 21
5.050000
 39
3
 62
7
  0
LINE
  8
Clamp
  6
CONTINUOUS
 10
9.098000
 20
5.350000
 11
8.902000
 21
5.350000
 39
3
 62
7
  0
LINE
  8
HoldDown
  6
CONTINUOUS
 10
5.375000
 20
11.750000
 11
5.375000
 21
11.125000
 39
3
 62
221
  0
LINE
  8
HoldDown
  6
CONTINUOUS
 10
5.375000
 20
11.750000
 11
11.875000
 21
11.750000
 39
3
 62
221
  0
LINE
  8
HoldDown
  6
CONTINUOUS
 10
11.875000
 20
11.750000
 11
11.875000
 21
10.225000
 39
3
 62
221
  0
LINE
  8
HoldDown
  6
CONTINUOUS
 10
11.250000
 20
10.225000
 11
11.875000
 21
10.225000
 39
3
 62
221
  0
LINE
  8
HoldDown
  6
CONTINUOUS
 10
11.250000
 20
11.125000
 11
11.250000
 21
10.225000
 39
3
 62
221
  0
LINE
  8
HoldDown
  6
CONTINUOUS
 10
5.375000
 20
11.125000
 11
11.250000
 21
11.125000
 39
3
 62
221
  0
LINE
  8
Clamp
  6
DASH
 10
5.750000
 20
10.125000
 11
5.652000
 21
10.181580
 39
3
 62
7
  0
LINE
  8
Clamp
  6
DASH
 10
5.848000
 20
10.181580
 11
5.750000
 21
10.125000
 39
3
 62
7
  0
LINE
  8
Clamp
  6
DASH
 10
5.652000
 20
11.125000
 11
5.652000
 21
10.181580
 39
3
 62
7
  0
LINE
  8
Clamp
  6
DASH
 10
5.848000
 20
11.125000
 11
5.848000
 21
10.181580
 39
3
 62
7
  0
LINE
  8
Clamp
  6
CONTINUOUS
 10
5.795000
 20
11.000000
 11
5.705000
 21
11.000000
 39
3
 62
7
  0
LINE
  8
Clamp
  6
CONTINUOUS
 10
5.795000
 20
10.700000
 11
5.705000
 21
10.700000
 39
3
 62
7
  0
LINE
  8
Clamp
  6
CONTINUOUS
 10
5.795000
 20
10.400000
 11
5.705000
 21
10.400000
 39
3
 62
7
  0
LINE
  8
Clamp
  6
CONTINUOUS
 10
5.848000
 20
10.250000
 11
5.652000
 21
10.250000
 39
3
 62
7
  0
LINE
  8
Clamp
  6
CONTINUOUS
 10
5.848000
 20
10.550000
 11
5.652000
 21
10.550000
 39
3
 62
7
  0
LINE
  8
Clamp
  6
CONTINUOUS
 10
5.848000
 20
10.850000
 11
5.652000
 21
10.850000
 39
3
 62
7
  0
LINE
  8
Clamp
  6
DASH
 10
11.875000
 20
10.625250
 11
12.625000
 21
10.625250
 39
3
 62
7
  0
LINE
  8
Clamp
  6
DASH
 10
11.875000
 20
10.374750
 11
12.625000
 21
10.374750
 39
3
 62
7
  0
LINE
  8
Clamp
  6
CONTINUOUS
 10
11.750000
 20
5.170000
 11
11.750000
 21
5.080000
 39
3
 62
7
  0
LINE
  8
Clamp
  6
CONTINUOUS
 10
12.050000
 20
5.170000
 11
12.050000
 21
5.080000
 39
3
 62
7
  0
LINE
  8
Clamp
  6
CONTINUOUS
 10
12.200000
 20
5.223000
 11
12.200000
 21
5.027000
 39
3
 62
7
  0
LINE
  8
Clamp
  6
CONTINUOUS
 10
11.900000
 20
5.223000
 11
11.900000
 21
5.027000
 39
3
 62
7
  0
LINE
  8
Bracket
  6
DASH
 10
13.500000
 20
7.875000
 11
13.500000
 21
7.625000
 39
3
 62
1
  0
LINE
  8
Bracket
  6
DASH
 10
13.750000
 20
7.875000
 11
13.750000
 21
7.625000
 39
3
 62
1
  0
LINE
  8
Bracket
  6
DASH
 10
13.527000
 20
7.625000
 11
13.527000
 21
6.875000
 39
3
 62
1
  0
LINE
  8
Bracket
  6
DASH
 10
13.723000
 20
7.625000
 11
13.723000
 21
6.875000
 39
3
 62
1
  0
LINE
  8
Bracket
  6
DASH
 10
13.500000
 20
7.625000
 11
13.750000
 21
7.625000
 39
3
 62
1
  0
LINE
  8
Bracket
  6
DASH
 10
15.000000
 20
7.625000
 11
15.250000
 21
7.625000
 39
3
 62
1
  0
LINE
  8
Bracket
  6
DASH
 10
15.027000
 20
7.625000
 11
15.027000
 21
6.875000
 39
3
 62
1
  0
LINE
  8
Bracket
  6
DASH
 10
15.223000
 20
7.625000
 11
15.223000
 21
6.875000
 39
3
 62
1
  0
LINE
  8
Bracket
  6
DASH
 10
15.000000
 20
7.875000
 11
15.000000
 21
7.625000
 39
3
 62
1
  0
LINE
  8
Bracket
  6
DASH
 10
15.250000
 20
7.875000
 11
15.250000
 21
7.625000
 39
3
 62
1
  0
LINE
  8
Clamp
  6
DASH
 10
12.375000
 20
6.250000
 11
12.625000
 21
6.250000
 39
3
 62
7
  0
LINE
  8
Clamp
  6
DASH
 10
12.375000
 20
6.500000
 11
12.375000
 21
6.250000
 39
3
 62
7
  0
LINE
  8
Clamp
  6
DASH
 10
12.375000
 20
6.500000
 11
12.625000
 21
6.500000
 39
3
 62
7
  0
LINE
  8
Clamp
  6
DASH
 10
12.375000
 20
5.250000
 11
12.625000
 21
5.250000
 39
3
 62
7
  0
LINE
  8
Clamp
  6
DASH
 10
12.375000
 20
5.250000
 11
12.375000
 21
5.000000
 39
3
 62
7
  0
LINE
  8
Clamp
  6
DASH
 10
12.375000
 20
5.000000
 11
12.625000
 21
5.000000
 39
3
 62
7
  0
LINE
  8
Clamp
  6
DASH
 10
11.681580
 20
6.473000
 11
12.375000
 21
6.473000
 39
3
 62
7
  0
LINE
  8
Clamp
  6
DASH
 10
11.681580
 20
6.277000
 11
12.375000
 21
6.277000
 39
3
 62
7
  0
LINE
  8
Clamp
  6
DASH
 10
11.681580
 20
5.223000
 11
12.375000
 21
5.223000
 39
3
 62
7
  0
LINE
  8
Clamp
  6
DASH
 10
11.681580
 20
5.027000
 11
12.375000
 21
5.027000
 39
3
 62
7
  0
LINE
  8
Clamp
  6
CONTINUOUS
 10
5.125000
 20
13.125000
 11
5.125000
 21
12.500000
 39
3
 62
7
  0
LINE
  8
Clamp
  6
CONTINUOUS
 10
5.125000
 20
13.125000
 11
12.625000
 21
13.125000
 39
3
 62
7
  0
LINE
  8
Clamp
  6
CONTINUOUS
 10
5.125000
 20
12.500000
 11
12.625000
 21
12.500000
 39
3
 62
7
  0
LINE
  8
Clamp
  6
CONTINUOUS
 10
12.625000
 20
13.125000
 11
12.625000
 21
12.500000
 39
3
 62
7
  0
LINE
  8
Clamp
  6
CONTINUOUS
 10
15.000000
 20
11.125000
 11
15.625000
 21
11.125000
 39
3
 62
7
  0
LINE
  8
Clamp
  6
CONTINUOUS
 10
15.625000
 20
11.125000
 11
15.625000
 21
4.625000
 39
3
 62
7
  0
LINE
  8
Clamp
  6
CONTINUOUS
 10
15.000000
 20
11.125000
 11
15.000000
 21
4.625000
 39
3
 62
7
  0
LINE
  8
Clamp
  6
CONTINUOUS
 10
15.000000
 20
4.625000
 11
15.625000
 21
4.625000
 39
3
 62
7
  0
LINE
  8
Clamp
  6
CONTINUOUS
 10
2.875000
 20
11.125000
 11
3.500000
 21
11.125000
 39
3
 62
7
  0
LINE
  8
Clamp
  6
CONTINUOUS
 10
3.500000
 20
11.125000
 11
3.500000
 21
4.625000
 39
3
 62
7
  0
LINE
  8
Clamp
  6
CONTINUOUS
 10
2.875000
 20
4.625000
 11
3.500000
 21
4.625000
 39
3
 62
7
  0
LINE
  8
Clamp
  6
CONTINUOUS
 10
2.875000
 20
11.125000
 11
2.875000
 21
4.625000
 39
3
 62
7
  0
LINE
  8
Clamp
  6
CONTINUOUS
 10
5.125000
 20
3.000000
 11
5.125000
 21
2.375000
 39
3
 62
7
  0
LINE
  8
Clamp
  6
CONTINUOUS
 10
5.125000
 20
2.375000
 11
12.625000
 21
2.375000
 39
3
 62
7
  0
LINE
  8
Clamp
  6
CONTINUOUS
 10
12.625000
 20
3.000000
 11
12.625000
 21
2.375000
 39
3
 62
7
  0
LINE
  8
Clamp
  6
CONTINUOUS
 10
5.125000
 20
3.000000
 11
12.625000
 21
3.000000
 39
3
 62
7
  0
LINE
  8
Layout
  6
CONTINUOUS
 10
2.500000
 20
13.500000
 11
2.500000
 21
2.000000
 39
0
 62
7
  0
LINE
  8
Layout
  6
CONTINUOUS
 10
2.500000
 20
13.500000
 11
16.000000
 21
13.500000
 39
0
 62
7
  0
LINE
  8
Layout
  6
CONTINUOUS
 10
16.000000
 20
13.500000
 11
16.000000
 21
2.000000
 39
0
 62
7
  0
LINE
  8
Layout
  6
CONTINUOUS
 10
2.500000
 20
2.000000
 11
16.000000
 21
2.000000
 39
0
 62
7
  0
CIRCLE
  8
Clamp
  6
CONTINUOUS
 10
9.000000
 20
12.812500
 40
0.098000
 39
3
 62
7
  0
CIRCLE
  8
Clamp
  6
CONTINUOUS
 10
9.000000
 20
2.687500
 40
0.098000
 39
3
 62
7
  0
CIRCLE
  8
Clamp
  6
CONTINUOUS
 10
3.187500
 20
8.500000
 40
0.098000
 39
3
 62
7
  0
CIRCLE
  8
Clamp
  6
CONTINUOUS
 10
15.312500
 20
8.500000
 40
0.098000
 39
3
 62
7
  0
CIRCLE
  8
Clamp
  6
CONTINUOUS
 10
15.312500
 20
6.375000
 40
0.098000
 39
3
 62
7
  0
CIRCLE
  8
Clamp
  6
CONTINUOUS
 10
15.312500
 20
5.125000
 40
0.098000
 39
3
 62
7
  0
CIRCLE
  8
Clamp
  6
CONTINUOUS
 10
5.750000
 20
12.812500
 40
0.098000
 39
3
 62
7
  0
LINE
  8
Clamp
  6
CONTINUOUS
 10
11.875000
 20
13.125000
 11
11.875000
 21
12.500000
 39
3
 62
7
  0
LINE
  8
Clamp
  6
CONTINUOUS
 10
6.125000
 20
13.125000
 11
6.125000
 21
12.500000
 39
3
 62
7
  0
LINE
  8
Dimension
  6
DASHDOT
 10
11.875000
 20
10.500000
 11
16.000000
 21
10.500000
 39
1
 62
7
  0
CIRCLE
  8
Clamp
  6
CONTINUOUS
 10
15.312500
 20
10.500000
 40
0.125250
 39
3
 62
7
  0
LINE
  8
Clamp
  6
DASH
 10
11.875000
 20
12.687250
 11
12.625000
 21
12.687250
 39
3
 62
7
  0
LINE
  8
Clamp
  6
DASH
 10
11.875000
 20
12.937750
 11
12.625000
 21
12.937750
 39
3
 62
7
  0
CIRCLE
  8
Clamp
  6
CONTINUOUS
 10
15.312500
 20
6.375000
 40
0.125000
 39
3
 62
7
  0
CIRCLE
  8
Clamp
  6
CONTINUOUS
 10
15.312500
 20
5.125000
 40
0.125000
 39
3
 62
7
  0
LINE
  8
Dimension
  6
DASHDOT
 10
11.400000
 20
6.375000
 11
16.000000
 21
6.375000
 39
1
 62
7
  0
LINE
  8
Dimension
  6
DASHDOT
 10
11.400000
 20
5.125000
 11
16.000000
 21
5.125000
 39
1
 62
7
  0
DIMENSION
  8
Dimension
  6
CONTINUOUS
  1
;;
 10
12.375000
 20
3.500000
 13
12.375000
 23
5.000000
 14
12.625000
 24
4.625000
 50
0.000000
 70
0
 39
1
 62
7
  0
DIMENSION
  8
Dimension
  6
CONTINUOUS
  1
;;
 10
12.625000
 20
5.500000
 13
12.625000
 23
5.000000
 14
11.625000
 24
5.125000
 50
0.000000
 70
0
 39
1
 62
7
  0
DIMENSION
  8
Dimension
  6
CONTINUOUS
  1
ø;;
 10
13.600000
 20
5.000000
 13
12.625000
 23
5.000000
 14
12.625000
 24
5.250000
 50
90.000000
 70
0
 39
1
 62
7
  0
DIMENSION
  8
Dimension
  6
CONTINUOUS
  1
ø;;
 10
14.600000
 20
5.027000
 13
15.312500
 23
5.027000
 14
15.312500
 24
5.223000
 70
1
 39
1
 62
7
  0
DIMENSION
  8
Dimension
  6
CONTINUOUS
  1
;;
 10
17.000000
 20
5.125000
 13
15.437500
 23
5.125000
 14
15.437500
 24
6.375000
 50
90.000000
 70
0
 39
1
 62
7
  0
DIMENSION
  8
Dimension
  6
CONTINUOUS
  1
;;
 10
17.000000
 20
6.375000
 13
15.437500
 23
6.375000
 14
15.410500
 24
8.500000
 50
90.000000
 70
0
 39
1
 62
7
  0
DIMENSION
  8
Dimension
  6
CONTINUOUS
  1
;;
 10
17.000000
 20
8.500000
 13
15.410500
 23
8.500000
 14
15.437750
 24
10.500000
 50
90.000000
 70
0
 39
1
 62
7
  0
DIMENSION
  8
Dimension
  6
CONTINUOUS
  1
ø;;
 10
13.600000
 20
6.500000
 13
12.625000
 23
6.500000
 14
12.625000
 24
6.250000
 50
90.000000
 70
0
 39
1
 62
7
  0
DIMENSION
  8
Dimension
  6
CONTINUOUS
  1
ø;;
 10
14.600000
 20
6.473000
 13
15.312500
 23
6.473000
 14
15.312500
 24
6.277000
 70
1
 39
1
 62
7
  0
DIMENSION
  8
Dimension
  6
CONTINUOUS
  1
ø;;
 10
13.800000
 20
8.598000
 13
15.312500
 23
8.598000
 14
15.312500
 24
8.402000
 70
1
 39
1
 62
7
  0
DIMENSION
  8
Dimension
  6
CONTINUOUS
  1
ø0.25;-.000;+.001
 10
15.437750
 20
11.500000
 13
15.437750
 23
10.500000
 14
15.187250
 24
10.500000
 70
1
 39
1
 62
7
  0
DIMENSION
  8
Dimension
  6
CONTINUOUS
  1
ø;;
 10
8.902000
 20
3.500000
 13
8.902000
 23
2.687500
 14
9.098000
 24
2.687500
 70
1
 39
1
 62
7
  0
DIMENSION
  8
Dimension
  6
CONTINUOUS
  1
ø;;
 10
4.500000
 20
8.402000
 13
3.187500
 23
8.402000
 14
3.187500
 24
8.598000
 70
1
 39
1
 62
7
  0
DIMENSION
  8
Dimension
  6
CONTINUOUS
  1
ø;;
 10
5.652000
 20
11.500000
 13
5.652000
 23
12.812500
 14
5.848000
 24
12.812500
 70
1
 39
1
 62
7
  0
DIMENSION
  8
Dimension
  6
CONTINUOUS
  1
;;
 10
3.500000
 20
4.000000
 13
3.500000
 23
4.625000
 14
2.875000
 24
4.625000
 50
0.000000
 70
0
 39
1
 62
7
  0
DIMENSION
  8
Dimension
  6
CONTINUOUS
  1
;;
 10
5.125000
 20
1.000000
 13
5.125000
 23
2.375000
 14
12.625000
 24
2.375000
 50
0.000000
 70
0
 39
1
 62
7
  0
DIMENSION
  8
Dimension
  6
CONTINUOUS
  1
;;
 10
17.000000
 20
4.625000
 13
15.625000
 23
4.625000
 14
15.437500
 24
5.125000
 50
90.000000
 70
0
 39
1
 62
7
  0
DIMENSION
  8
Dimension
  6
CONTINUOUS
  1
;;
 10
2.000000
 20
4.625000
 13
2.875000
 23
4.625000
 14
2.875000
 24
11.125000
 50
90.000000
 70
0
 39
1
 62
7
  0
DIMENSION
  8
Dimension
  6
CONTINUOUS
  1
;;
 10
9.000000
 20
8.500000
 15
8.000000
 25
7.000000
 40
2.875000
 70
4
 39
1
 62
7
  0
DIMENSION
  8
Dimension
  6
CONTINUOUS
  1
;;
 10
5.125000
 20
14.000000
 13
5.125000
 23
13.125000
 14
6.125000
 24
13.125000
 50
0.000000
 70
0
 39
1
 62
7
  0
DIMENSION
  8
Dimension
  6
CONTINUOUS
  1
;;
 10
12.625000
 20
14.000000
 13
12.625000
 23
13.125000
 14
11.875000
 24
13.125000
 50
0.000000
 70
0
 39
1
 62
7
  0
DIMENSION
  8
Dimension
  6
CONTINUOUS
  1
;;
 10
6.125000
 20
14.000000
 13
6.125000
 23
13.125000
 14
11.875000
 24
13.125000
 50
0.000000
 70
0
 39
1
 62
7
  0
LINE
  8
Plate
  6
CONTINUOUS
 10
19.625000
 20
8.500000
 11
19.625000
 21
7.875000
 39
3
 62
221
  0
LINE
  8
Plate
  6
CONTINUOUS
 10
12.625000
 20
8.500000
 11
19.625000
 21
8.500000
 39
3
 62
221
  0
LINE
  8
Plate
  6
CONTINUOUS
 10
12.625000
 20
7.875000
 11
19.625000
 21
7.875000
 39
3
 62
221
  0
TEXT
  8
Text
  6
CONTINUOUS
 10
14.500000
 20
15.500000
 40
0.300000
 50
0.000000
 72
0
  7
Courier#0.030000#0.180000
  1
PSAS <www.psas.pdx.edu>
 39
1
 62
7
  0
TEXT
  8
Text
  6
CONTINUOUS
 10
14.500000
 20
15.080000
 40
0.300000
 50
0.000000
 72
0
  7
Courier#0.030000#0.180000
  1
Fin Jig Clamp
 39
1
 62
7
  0
TEXT
  8
Text
  6
CONTINUOUS
 10
15.500000
 20
3.000000
 40
0.300000
 50
0.000000
 72
0
  7
romand#0.030000#0.180000
  1
Notes:
 39
1
 62
7
  0
TEXT
  8
Text
  6
CONTINUOUS
 10
15.500000
 20
2.580000
 40
0.300000
 50
0.000000
 72
0
  7
romand#0.030000#0.180000
  1
Material Aluminum 6061-T6 or similar
 39
1
 62
7
  0
TEXT
  8
Text
  6
CONTINUOUS
 10
15.500000
 20
2.160000
 40
0.300000
 50
0.000000
 72
0
  7
romand#0.030000#0.180000
  1
0.196 holes thread 1/4-20
 39
1
 62
7
  0
TEXT
  8
Text
  6
CONTINUOUS
 10
13.000000
 20
1.500000
 40
0.300000
 50
0.000000
 72
0
  7
romand#0.030000#0.180000
  1
Two holes have been counter bored 1/4 to make
 39
1
 62
7
  0
LINE
  8
Dimension
  6
DASHDOT
 10
4.800000
 20
2.687500
 11
13.000000
 21
2.687500
 39
1
 62
7
  0
LINE
  8
Dimension
  6
DASHDOT
 10
3.187500
 20
11.500000
 11
3.187500
 21
4.100000
 39
1
 62
7
  0
LINE
  8
Dimension
  6
DASHDOT
 10
15.312500
 20
11.500000
 11
15.312500
 21
4.100000
 39
1
 62
7
  0
LINE
  8
Dimension
  6
DASHDOT
 10
5.000000
 20
12.812500
 11
13.000000
 21
12.812500
 39
1
 62
7
  0
TEXT
  8
Text
  6
CONTINUOUS
 10
14.500000
 20
13.500000
 40
0.300000
 50
0.000000
 72
0
  7
Courier#0.030000#0.180000
  1
Dimensions in inches
 39
1
 62
7
  0
LINE
  8
Dimension
  6
DASHDOT
 10
5.750000
 20
13.000000
 11
5.750000
 21
9.700000
 39
1
 62
7
  0
LINE
  8
Dimension
  6
DASHDOT
 10
9.000000
 20
13.000000
 11
9.000000
 21
2.000000
 39
1
 62
7
  0
LINE
  8
Dimension
  6
DASHDOT
 10
3.000000
 20
8.500000
 11
16.000000
 21
8.500000
 39
1
 62
7
  0
DIMENSION
  8
Dimension
  6
CONTINUOUS
  1
;;
 10
4.500000
 20
10.125000
 13
5.750000
 23
10.125000
 14
5.652000
 24
11.125000
 50
90.000000
 70
0
 39
1
 62
7
  0
LINE
  8
Bracket Dimension
  6
DASHDOT
 10
12.625000
 20
7.375000
 11
17.946515
 21
7.375000
 39
1
 62
7
  0
LINE
  8
Bracket Dimension
  6
DASHDOT
 10
13.625000
 20
11.125000
 11
13.625000
 21
4.625000
 39
1
 62
7
  0
LINE
  8
Bracket Dimension
  6
DASHDOT
 10
15.125000
 20
11.125000
 11
15.125000
 21
4.625000
 39
1
 62
7
  0
TEXT
  8
Text
  6
CONTINUOUS
 10
14.500000
 20
14.500000
 40
0.300000
 50
0.000000
 72
0
  7
Courier#0.030000#0.180000
  1
v1.0  3/03/03
 39
1
 62
7
  0
TEXT
  8
Text
  6
CONTINUOUS
 10
13.000000
 20
1.080000
 40
0.300000
 50
0.000000
 72
0
  7
romand#0.030000#0.180000
  1
them better locating holes. Probably this is unnecessary.
 39
1
 62
7
  0
ENDSEC
  0
EOF
