999
dxflib 2.0.4.8
  0
SECTION
  2
HEADER
  9
$ACADVER
  1
AC1015
  9
$HANDSEED
  5
FFFF
  9
$DIMASZ
 40
0.25
  9
$GRIDUNIT
 10
0.1
 20
0.1
  9
$DIMADEC
 70
1
  9
$DIMGAP
 40
0.1
  9
$SPLINESEGS
 70
8
  9
$AUPREC
 70
1
  9
$LUNITS
 70
2
  9
$DIMEXO
 40
0.125
  9
$INSUNITS
 70
1
  9
$DIMLUNIT
 70
2
  9
$GRIDMODE
 70
0
  9
$DIMTXT
 40
0.2
  9
$LUPREC
 70
3
  9
$DIMSTYLE
  2
Standard
  9
$PSVPSCALE
 40
0.5
  9
$PLIMMAX
 10
11.0
 20
8.5
  9
$PLIMMIN
 10
0.0
 20
0.0
  9
$PINSBASE
 10
0.0
 20
0.0
 30
0.0
  9
$DIMEXE
 40
0.1
  9
$DIMAUNIT
 70
0
  9
$AUNITS
 70
0
  0
ENDSEC
  0
SECTION
  2
TABLES
  0
TABLE
  2
VPORT
  5
8
100
AcDbSymbolTable
 70
1
  0
VPORT
  5
30
100
AcDbSymbolTableRecord
100
AcDbViewportTableRecord
  2
*Active
 70
0
 10
0.0
 20
0.0
 11
1.0
 21
1.0
 12
286.3055555555554861
 22
148.5
 13
0.0
 23
0.0
 14
10.0
 24
10.0
 15
10.0
 25
10.0
 16
0.0
 26
0.0
 36
1.0
 17
0.0
 27
0.0
 37
0.0
 40
297.0
 41
1.92798353909465
 42
50.0
 43
0.0
 44
0.0
 50
0.0
 51
0.0
 71
0
 72
100
 73
1
 74
3
 75
1
 76
1
 77
0
 78
0
281
0
 65
1
110
0.0
120
0.0
130
0.0
111
1.0
121
0.0
131
0.0
112
0.0
122
1.0
132
0.0
 79
0
146
0.0
  0
ENDTAB
  0
TABLE
  2
LTYPE
  5
5
100
AcDbSymbolTable
 70
21
  0
LTYPE
  5
14
100
AcDbSymbolTableRecord
100
AcDbLinetypeTableRecord
  2
ByBlock
 70
0
  3

 72
65
 73
0
 40
0.0
  0
LTYPE
  5
15
100
AcDbSymbolTableRecord
100
AcDbLinetypeTableRecord
  2
ByLayer
 70
0
  3

 72
65
 73
0
 40
0.0
  0
LTYPE
  5
16
100
AcDbSymbolTableRecord
100
AcDbLinetypeTableRecord
  2
CONTINUOUS
 70
0
  3
Solid line
 72
65
 73
0
 40
0.0
  0
LTYPE
  5
31
100
AcDbSymbolTableRecord
100
AcDbLinetypeTableRecord
  2
DOT
 70
0
  3
Dot . . . . . . . . . . . . . . . . . . . . . .
 72
65
 73
2
 40
6.3499999999999996
 49
0.0
 74
0
 49
-6.3499999999999996
 74
0
  0
LTYPE
  5
32
100
AcDbSymbolTableRecord
100
AcDbLinetypeTableRecord
  2
DOT2
 70
0
  3
Dot (.5x) .....................................
 72
65
 73
2
 40
3.1749999999999998
 49
0.0
 74
0
 49
-3.1749999999999998
 74
0
  0
LTYPE
  5
33
100
AcDbSymbolTableRecord
100
AcDbLinetypeTableRecord
  2
DOTX2
 70
0
  3
Dot (2x) .  .  .  .  .  .  .  .  .  .  .  .  .
 72
65
 73
2
 40
12.6999999999999993
 49
0.0
 74
0
 49
-12.6999999999999993
 74
0
  0
LTYPE
  5
34
100
AcDbSymbolTableRecord
100
AcDbLinetypeTableRecord
  2
DASHED
 70
0
  3
Dashed __ __ __ __ __ __ __ __ __ __ __ __ __ _
 72
65
 73
2
 40
19.0500000000000007
 49
12.6999999999999993
 74
0
 49
-6.3499999999999996
 74
0
  0
LTYPE
  5
35
100
AcDbSymbolTableRecord
100
AcDbLinetypeTableRecord
  2
DASHED2
 70
0
  3
Dashed (.5x) _ _ _ _ _ _ _ _ _ _ _ _ _ _ _ _ _
 72
65
 73
2
 40
9.5250000000000004
 49
6.3499999999999996
 74
0
 49
-3.1749999999999998
 74
0
  0
LTYPE
  5
36
100
AcDbSymbolTableRecord
100
AcDbLinetypeTableRecord
  2
DASHEDX2
 70
0
  3
Dashed (2x) ____  ____  ____  ____  ____  ___
 72
65
 73
2
 40
38.1000000000000014
 49
25.3999999999999986
 74
0
 49
-12.6999999999999993
 74
0
  0
LTYPE
  5
37
100
AcDbSymbolTableRecord
100
AcDbLinetypeTableRecord
  2
DASHDOT
 70
0
  3
Dash dot __ . __ . __ . __ . __ . __ . __ . __
 72
65
 73
4
 40
25.3999999999999986
 49
12.6999999999999993
 74
0
 49
-6.3499999999999996
 74
0
 49
0.0
 74
0
 49
-6.3499999999999996
 74
0
  0
LTYPE
  5
38
100
AcDbSymbolTableRecord
100
AcDbLinetypeTableRecord
  2
DASHDOT2
 70
0
  3
Dash dot (.5x) _._._._._._._._._._._._._._._.
 72
65
 73
4
 40
12.6999999999999993
 49
6.3499999999999996
 74
0
 49
-3.1749999999999998
 74
0
 49
0.0
 74
0
 49
-3.1749999999999998
 74
0
  0
LTYPE
  5
39
100
AcDbSymbolTableRecord
100
AcDbLinetypeTableRecord
  2
DASHDOTX2
 70
0
  3
Dash dot (2x) ____  .  ____  .  ____  .  ___
 72
65
 73
4
 40
50.7999999999999972
 49
25.3999999999999986
 74
0
 49
-12.6999999999999993
 74
0
 49
0.0
 74
0
 49
-12.6999999999999993
 74
0
  0
LTYPE
  5
3A
100
AcDbSymbolTableRecord
100
AcDbLinetypeTableRecord
  2
DIVIDE
 70
0
  3
Divide ____ . . ____ . . ____ . . ____ . . ____
 72
65
 73
6
 40
31.75
 49
12.6999999999999993
 74
0
 49
-6.3499999999999996
 74
0
 49
0.0
 74
0
 49
-6.3499999999999996
 74
0
 49
0.0
 74
0
 49
-6.3499999999999996
 74
0
  0
LTYPE
  5
3B
100
AcDbSymbolTableRecord
100
AcDbLinetypeTableRecord
  2
DIVIDE2
 70
0
  3
Divide (.5x) __..__..__..__..__..__..__..__.._
 72
65
 73
6
 40
15.875
 49
6.3499999999999996
 74
0
 49
-3.1749999999999998
 74
0
 49
0.0
 74
0
 49
-3.1749999999999998
 74
0
 49
0.0
 74
0
 49
-3.1749999999999998
 74
0
  0
LTYPE
  5
3C
100
AcDbSymbolTableRecord
100
AcDbLinetypeTableRecord
  2
DIVIDEX2
 70
0
  3
Divide (2x) ________  .  .  ________  .  .  _
 72
65
 73
6
 40
63.5
 49
25.3999999999999986
 74
0
 49
-12.6999999999999993
 74
0
 49
0.0
 74
0
 49
-12.6999999999999993
 74
0
 49
0.0
 74
0
 49
-12.6999999999999993
 74
0
  0
LTYPE
  5
3D
100
AcDbSymbolTableRecord
100
AcDbLinetypeTableRecord
  2
CENTER
 70
0
  3
Center ____ _ ____ _ ____ _ ____ _ ____ _ ____
 72
65
 73
4
 40
50.7999999999999972
 49
31.75
 74
0
 49
-6.3499999999999996
 74
0
 49
6.3499999999999996
 74
0
 49
-6.3499999999999996
 74
0
  0
LTYPE
  5
3E
100
AcDbSymbolTableRecord
100
AcDbLinetypeTableRecord
  2
CENTER2
 70
0
  3
Center (.5x) ___ _ ___ _ ___ _ ___ _ ___ _ ___
 72
65
 73
4
 40
28.5749999999999993
 49
19.0500000000000007
 74
0
 49
-3.1749999999999998
 74
0
 49
3.1749999999999998
 74
0
 49
-3.1749999999999998
 74
0
  0
LTYPE
  5
3F
100
AcDbSymbolTableRecord
100
AcDbLinetypeTableRecord
  2
CENTERX2
 70
0
  3
Center (2x) ________  __  ________  __  _____
 72
65
 73
4
 40
101.5999999999999943
 49
63.5
 74
0
 49
-12.6999999999999993
 74
0
 49
12.6999999999999993
 74
0
 49
-12.6999999999999993
 74
0
  0
LTYPE
  5
40
100
AcDbSymbolTableRecord
100
AcDbLinetypeTableRecord
  2
BORDER
 70
0
  3
Border __ __ . __ __ . __ __ . __ __ . __ __ .
 72
65
 73
6
 40
44.4500000000000028
 49
12.6999999999999993
 74
0
 49
-6.3499999999999996
 74
0
 49
12.6999999999999993
 74
0
 49
-6.3499999999999996
 74
0
 49
0.0
 74
0
 49
-6.3499999999999996
 74
0
  0
LTYPE
  5
41
100
AcDbSymbolTableRecord
100
AcDbLinetypeTableRecord
  2
BORDER2
 70
0
  3
Border (.5x) __.__.__.__.__.__.__.__.__.__.__.
 72
65
 73
6
 40
22.2250000000000014
 49
6.3499999999999996
 74
0
 49
-3.1749999999999998
 74
0
 49
6.3499999999999996
 74
0
 49
-3.1749999999999998
 74
0
 49
0.0
 74
0
 49
-3.1749999999999998
 74
0
  0
LTYPE
  5
42
100
AcDbSymbolTableRecord
100
AcDbLinetypeTableRecord
  2
BORDERX2
 70
0
  3
Border (2x) ____  ____  .  ____  ____  .  ___
 72
65
 73
6
 40
88.9000000000000057
 49
25.3999999999999986
 74
0
 49
-12.6999999999999993
 74
0
 49
25.3999999999999986
 74
0
 49
-12.6999999999999993
 74
0
 49
0.0
 74
0
 49
-12.6999999999999993
 74
0
  0
ENDTAB
  0
TABLE
  2
LAYER
  5
2
100
AcDbSymbolTable
 70
7
  0
LAYER
  5
10
100
AcDbSymbolTableRecord
100
AcDbLayerTableRecord
  2
0
 70
1
 62
3
  6
CONTINUOUS
370
0
390
F
  0
LAYER
  5
43
100
AcDbSymbolTableRecord
100
AcDbLayerTableRecord
  2
Coupler
 70
0
 62
32
  6
CONTINUOUS
370
70
390
F
  0
LAYER
  5
44
100
AcDbSymbolTableRecord
100
AcDbLayerTableRecord
  2
Dimension
 70
0
 62
7
  6
CONTINUOUS
370
25
390
F
  0
LAYER
  5
45
100
AcDbSymbolTableRecord
100
AcDbLayerTableRecord
  2
Section
 70
0
 62
7
  6
DIVIDE
370
100
390
F
  0
LAYER
  5
46
100
AcDbSymbolTableRecord
100
AcDbLayerTableRecord
  2
Boundary
 70
1
 62
1
  6
CONTINUOUS
370
0
390
F
  0
LAYER
  5
47
100
AcDbSymbolTableRecord
100
AcDbLayerTableRecord
  2
Module
 70
0
 62
7
  6
CONTINUOUS
370
70
390
F
  0
LAYER
  5
48
100
AcDbSymbolTableRecord
100
AcDbLayerTableRecord
  2
ModuleHoles
 70
0
 62
7
  6
CONTINUOUS
370
70
390
F
  0
ENDTAB
  0
TABLE
  2
STYLE
  5
3
100
AcDbSymbolTable
 70
1
  0
STYLE
  5
11
100
AcDbSymbolTableRecord
100
AcDbTextStyleTableRecord
  2
Standard
 70
0
 40
0.0
 41
0.75
 50
0.0
 71
0
 42
2.5
  3
txt
  4

  0
ENDTAB
  0
TABLE
  2
VIEW
  5
6
100
AcDbSymbolTable
 70
0
  0
ENDTAB
  0
TABLE
  2
UCS
  5
7
100
AcDbSymbolTable
 70
0
  0
ENDTAB
  0
TABLE
  2
APPID
  5
9
100
AcDbSymbolTable
 70
1
  0
APPID
  5
12
100
AcDbSymbolTableRecord
100
AcDbRegAppTableRecord
  2
ACAD
 70
0
  0
ENDTAB
  0
TABLE
  2
DIMSTYLE
  5
A
100
AcDbSymbolTable
 70
1
100
AcDbDimStyleTable
 71
0
  0
DIMSTYLE
105
27
100
AcDbSymbolTableRecord
100
AcDbDimStyleTableRecord
  2
Standard
 41
0.25
 42
0.125
 43
3.75
 44
0.1
 70
0
 73
0
 74
0
 77
1
 78
8
140
0.2
141
2.5
143
0.03937007874016
147
0.1
171
3
172
1
271
2
272
2
274
3
278
44
283
0
284
8
340
11
  0
ENDTAB
  0
TABLE
  2
BLOCK_RECORD
  5
1
100
AcDbSymbolTable
 70
1
  0
BLOCK_RECORD
  5
1F
100
AcDbSymbolTableRecord
100
AcDbBlockTableRecord
  2
*Model_Space
340
22
  0
BLOCK_RECORD
  5
1B
100
AcDbSymbolTableRecord
100
AcDbBlockTableRecord
  2
*Paper_Space
340
1E
  0
BLOCK_RECORD
  5
23
100
AcDbSymbolTableRecord
100
AcDbBlockTableRecord
  2
*Paper_Space0
340
26
  0
BLOCK_RECORD
  5
49
100
AcDbSymbolTableRecord
100
AcDbBlockTableRecord
  2
Module
340
0
  0
BLOCK_RECORD
  5
4A
100
AcDbSymbolTableRecord
100
AcDbBlockTableRecord
  2
Coupler
340
0
  0
ENDTAB
  0
ENDSEC
  0
SECTION
  2
BLOCKS
  0
BLOCK
  5
20
100
AcDbEntity
  8
0
100
AcDbBlockBegin
  2
*Model_Space
 70
0
 10
0.0
 20
0.0
 30
0.0
  3
*Model_Space
  1

  0
ENDBLK
  5
21
100
AcDbEntity
  8
0
100
AcDbBlockEnd
  0
BLOCK
  5
1C
100
AcDbEntity
 67
1
  8
0
100
AcDbBlockBegin
  2
*Paper_Space
 70
0
 10
0.0
 20
0.0
 30
0.0
  3
*Paper_Space
  1

  0
ENDBLK
  5
1D
100
AcDbEntity
 67
1
  8
0
100
AcDbBlockEnd
  0
BLOCK
  5
24
100
AcDbEntity
  8
0
100
AcDbBlockBegin
  2
*Paper_Space0
 70
0
 10
0.0
 20
0.0
 30
0.0
  3
*Paper_Space0
  1

  0
ENDBLK
  5
25
100
AcDbEntity
  8
0
100
AcDbBlockEnd
  0
BLOCK
  5
4B
100
AcDbEntity
  8
0
100
AcDbBlockBegin
  2
Module
 70
0
 10
0.0
 20
0.0
 30
0.0
  3
Module
  1

  0
ENDBLK
  5
4C
100
AcDbEntity
  8
0
100
AcDbBlockEnd
  0
BLOCK
  5
4D
100
AcDbEntity
  8
0
100
AcDbBlockBegin
  2
Coupler
 70
0
 10
0.0
 20
0.0
 30
0.0
  3
Coupler
  1

  0
ENDBLK
  5
4E
100
AcDbEntity
  8
0
100
AcDbBlockEnd
  0
ENDSEC
  0
SECTION
  2
ENTITIES
  0
LINE
  5
4F
100
AcDbEntity
100
AcDbLine
  8
0
 62
256
370
-1
  6
ByLayer
 10
0.0
 20
10.5
 30
0.0
 11
22.0
 21
10.5
 31
0.0
  0
MTEXT
  5
50
100
AcDbEntity
100
AcDbMText
  8
Section
 62
256
370
-1
  6
ByLayer
 10
2.9000000000000004
 20
12.5
 30
0.0
 40
0.5
 41
100.0
 71
1
 72
2
  1
A-A
  7
normallatin1
 50
0.0
 73
1
 44
1.0
  0
LINE
  5
51
100
AcDbEntity
100
AcDbLine
  8
Boundary
 62
256
370
-1
  6
ByLayer
 10
22.0
 20
0.0
 30
0.0
 11
22.0
 21
17.0
 31
0.0
  0
LINE
  5
52
100
AcDbEntity
100
AcDbLine
  8
Boundary
 62
256
370
-1
  6
ByLayer
 10
22.0
 20
17.0
 30
0.0
 11
0.0
 21
17.0
 31
0.0
  0
LINE
  5
53
100
AcDbEntity
100
AcDbLine
  8
Boundary
 62
256
370
-1
  6
ByLayer
 10
0.0
 20
17.0
 30
0.0
 11
0.0
 21
0.0
 31
0.0
  0
LINE
  5
54
100
AcDbEntity
100
AcDbLine
  8
Boundary
 62
256
370
-1
  6
ByLayer
 10
0.0
 20
0.0
 30
0.0
 11
22.0
 21
0.0
 31
0.0
  0
LINE
  5
55
100
AcDbEntity
100
AcDbLine
  8
Dimension
 62
256
370
-1
  6
CENTER
 10
3.5
 20
10.375
 30
0.0
 11
3.5
 21
16.625
 31
0.0
  0
MTEXT
  5
56
100
AcDbEntity
100
AcDbMText
  8
Coupler
 62
256
370
-1
  6
ByLayer
 10
13.4000000000000021
 20
9.5000000000000018
 30
0.0
 40
0.5
 41
100.0
 71
1
 72
2
  1
Coupler
  7
normallatin1
 50
0.0
 73
1
 44
1.0
  0
LINE
  5
57
100
AcDbEntity
100
AcDbLine
  8
Dimension
 62
256
370
-1
  6
CENTER
 10
9.5000000000000018
 20
10.375
 30
0.0
 11
9.5000000000000018
 21
16.625
 31
0.0
  0
LINE
  5
58
100
AcDbEntity
100
AcDbLine
  8
Dimension
 62
256
370
-1
  6
CENTER
 10
2.9391153242036303
 20
10.6802423188407118
 30
0.0
 11
3.0610467754637112
 21
11.2932331190927329
 31
0.0
  0
LINE
  5
59
100
AcDbEntity
100
AcDbLine
  8
Dimension
 62
256
370
-1
  6
CENTER
 10
4.0608846757963661
 20
10.6802423188407118
 30
0.0
 11
3.9389532245362866
 21
11.2932331190927329
 31
0.0
  0
LINE
  5
5A
100
AcDbEntity
100
AcDbLine
  8
Dimension
 62
256
370
-1
  6
CENTER
 10
5.0972644199313555
 20
11.1095248646301812
 30
0.0
 11
4.7500330242941029
 21
11.6291933723192731
 31
0.0
  0
LINE
  5
5B
100
AcDbEntity
100
AcDbLine
  8
Dimension
 62
256
370
-1
  6
CENTER
 10
5.8904751353698188
 20
11.9027355800686436
 30
0.0
 11
5.3708066276807251
 21
12.2499669757058953
 31
0.0
  0
LINE
  5
5C
100
AcDbEntity
100
AcDbLine
  8
Dimension
 62
256
370
-1
  6
CENTER
 10
6.3197576811592882
 20
12.9391153242036303
 30
0.0
 11
5.7067668809072671
 21
13.0610467754637103
 31
0.0
  0
LINE
  5
5D
100
AcDbEntity
100
AcDbLine
  8
Dimension
 62
256
370
-1
  6
CENTER
 10
6.319757681159289
 20
14.0608846757963661
 30
0.0
 11
5.7067668809072671
 21
13.9389532245362862
 31
0.0
  0
LINE
  5
5E
100
AcDbEntity
100
AcDbLine
  8
Dimension
 62
256
370
-1
  6
CENTER
 10
5.8904751353698188
 20
15.0972644199313564
 30
0.0
 11
5.370806627680726
 21
14.7500330242941029
 31
0.0
  0
LINE
  5
5F
100
AcDbEntity
100
AcDbLine
  8
Dimension
 62
256
370
-1
  6
CENTER
 10
5.0972644199313573
 20
15.8904751353698188
 30
0.0
 11
4.7500330242941047
 21
15.3708066276807251
 31
0.0
  0
LINE
  5
60
100
AcDbEntity
100
AcDbLine
  8
Dimension
 62
256
370
-1
  6
CENTER
 10
4.0608846757963706
 20
16.3197576811592882
 30
0.0
 11
3.9389532245362897
 21
15.7067668809072671
 31
0.0
  0
LINE
  5
61
100
AcDbEntity
100
AcDbLine
  8
Dimension
 62
256
370
-1
  6
CENTER
 10
2.9391153242036339
 20
16.3197576811592882
 30
0.0
 11
3.0610467754637138
 21
15.7067668809072671
 31
0.0
  0
LINE
  5
62
100
AcDbEntity
100
AcDbLine
  8
Dimension
 62
256
370
-1
  6
CENTER
 10
1.9027355800686445
 20
15.8904751353698188
 30
0.0
 11
2.2499669757058971
 21
15.3708066276807269
 31
0.0
  0
LINE
  5
63
100
AcDbEntity
100
AcDbLine
  8
Dimension
 62
256
370
-1
  6
CENTER
 10
1.1095248646301847
 20
15.0972644199313617
 30
0.0
 11
1.6291933723192766
 21
14.7500330242941082
 31
0.0
  0
LINE
  5
64
100
AcDbEntity
100
AcDbLine
  8
Dimension
 62
256
370
-1
  6
CENTER
 10
0.6802423188407114
 20
14.0608846757963679
 30
0.0
 11
1.2932331190927324
 21
13.9389532245362879
 31
0.0
  0
LINE
  5
65
100
AcDbEntity
100
AcDbLine
  8
Dimension
 62
256
370
-1
  6
CENTER
 10
0.680242318840711
 20
12.9391153242036339
 30
0.0
 11
1.2932331190927324
 21
13.0610467754637138
 31
0.0
  0
LINE
  5
66
100
AcDbEntity
100
AcDbLine
  8
Dimension
 62
256
370
-1
  6
CENTER
 10
1.1095248646301807
 20
11.9027355800686436
 30
0.0
 11
1.6291933723192735
 21
12.2499669757058971
 31
0.0
  0
LINE
  5
67
100
AcDbEntity
100
AcDbLine
  8
Dimension
 62
256
370
-1
  6
CENTER
 10
1.9027355800686425
 20
11.1095248646301812
 30
0.0
 11
2.2499669757058953
 21
11.6291933723192749
 31
0.0
  0
LINE
  5
68
100
AcDbEntity
100
AcDbLine
  8
Dimension
 62
256
370
-1
  6
CENTER
 10
7.9090097423302703
 20
15.0909902576697323
 30
0.0
 11
7.4670680040886781
 21
15.5329319959113246
 31
0.0
  0
LINE
  5
69
100
AcDbEntity
100
AcDbLine
  8
Dimension
 62
256
370
-1
  6
CENTER
 10
7.9090097423302694
 20
11.9090097423302677
 30
0.0
 11
7.4670680040886772
 21
11.4670680040886772
 31
0.0
  0
DIMENSION
  5
6A
100
AcDbEntity
  8
Dimension
 62
256
370
-1
  6
ByLayer
100
AcDbDimension
 10
0.8750000000000018
 20
13.5
 30
0.0
 11
0.0
 21
0.0
 31
0.0
 70
2
 71
5
 72
1
 41
1.0
 42
0.0
  1

  3
Standard
100
AcDb2LineAngularDimension
 13
7.9090097423302703
 23
15.0909902576697323
 33
0.0
 14
7.4670680040886781
 24
15.5329319959113246
 34
0.0
 15
12.6250000000000018
 25
13.5
 35
0.0
 16
10.8000000000000007
 26
12.7000000000000011
 36
0.0
  0
LINE
  5
6B
100
AcDbEntity
100
AcDbLine
  8
Dimension
 62
256
370
-1
  6
CENTER
 10
9.5000000000000018
 20
13.5
 30
0.0
 11
11.5329319959113263
 21
11.4670680040886754
 31
0.0
  0
LEADER
  5
6C
  8
Dimension
 62
256
370
-1
  6
ByLayer
100
AcDbEntity
100
AcDbLeader
  3
Standard
 71
1
 72
0
 73
3
 74
0
 75
0
 40
1.0
 41
10.0
 76
3
 10
11.7811106588963366
 20
15.781110658896333
 10
11.9578873541929731
 20
15.9578873541929696
 10
12.6000000000000014
 20
15.9578873541929696
  0
LINE
  5
6D
100
AcDbEntity
100
AcDbLine
  8
Dimension
 62
256
370
-1
  6
CENTER
 10
11.0909902576697341
 20
15.0909902576697306
 30
0.0
 11
11.7811106588963366
 21
15.781110658896333
 31
0.0
  0
MTEXT
  5
6E
100
AcDbEntity
100
AcDbMText
  8
Dimension
 62
256
370
-1
  6
ByLayer
 10
12.7000000000000011
 20
16.1999999999999993
 30
0.0
 40
0.2
 41
100.0
 71
1
 72
2
  1
Drill\~#29\PTap\~#8-32\P4\~places
  7
normallatin1
 50
0.0
 73
1
 44
1.0
  0
DIMENSION
  5
6F
100
AcDbEntity
  8
Dimension
 62
256
370
-1
  6
ByLayer
100
AcDbDimension
 10
3.5
 20
10.375
 30
0.0
 11
0.0
 21
0.0
 31
0.0
 70
2
 71
5
 72
1
 41
1.0
 42
0.0
  1
\~
  3
Standard
100
AcDb2LineAngularDimension
 13
3.9389532245362866
 23
11.2932331190927329
 33
0.0
 14
4.0608846757963661
 24
10.6802423188407118
 34
0.0
 15
3.5
 25
16.625
 35
0.0
 16
3.9000000000000004
 26
9.7000000000000011
 36
0.0
  0
MTEXT
  5
70
100
AcDbEntity
100
AcDbMText
  8
Section
 62
256
370
-1
  6
ByLayer
 10
9.0
 20
12.5000000000000018
 30
0.0
 40
0.5
 41
100.0
 71
1
 72
2
  1
B-B
  7
normallatin1
 50
0.0
 73
1
 44
1.0
  0
LINE
  5
71
100
AcDbEntity
100
AcDbLine
  8
Dimension
 62
256
370
-1
  6
CENTER
 10
16.3477590650225757
 20
11.2653668647301792
 30
0.0
 11
17.1561536559699519
 21
11.6002148680496333
 31
0.0
  0
LINE
  5
72
100
AcDbEntity
100
AcDbLine
  8
Dimension
 62
256
370
-1
  6
CENTER
 10
13.7346331352698243
 20
12.3477590650225757
 30
0.0
 11
13.3997851319503702
 21
13.1561536559699519
 31
0.0
  0
LINE
  5
73
100
AcDbEntity
100
AcDbLine
  8
Dimension
 62
256
370
-1
  6
CENTER
 10
12.6522409349774279
 20
9.7346331352698243
 30
0.0
 11
11.8438463440300517
 21
9.3997851319503702
 31
0.0
  0
LINE
  5
74
100
AcDbEntity
100
AcDbLine
  8
Dimension
 62
256
370
-1
  6
CENTER
 10
15.2653668647301775
 20
8.6522409349774279
 30
0.0
 11
15.6002148680496333
 21
7.8438463440300517
 31
0.0
  0
LINE
  5
75
100
AcDbEntity
100
AcDbLine
  8
Dimension
 62
256
370
-1
  6
CENTER
 10
15.2653668647301828
 20
12.3477590650225739
 30
0.0
 11
15.6002148680496369
 21
13.1561536559699501
 31
0.0
  0
LINE
  5
76
100
AcDbEntity
100
AcDbLine
  8
Dimension
 62
256
370
-1
  6
CENTER
 10
13.0857864376269077
 20
11.9142135623730976
 30
0.0
 11
12.467068004088679
 21
12.5329319959113263
 31
0.0
  0
LINE
  5
77
100
AcDbEntity
100
AcDbLine
  8
Dimension
 62
256
370
-1
  6
CENTER
 10
12.6522409349774296
 20
11.2653668647301828
 30
0.0
 11
11.8438463440300534
 21
11.6002148680496369
 31
0.0
  0
LINE
  5
78
100
AcDbEntity
100
AcDbLine
  8
Dimension
 62
256
370
-1
  6
CENTER
 10
13.0857864376269042
 20
9.0857864376269095
 30
0.0
 11
12.4670680040886772
 21
8.467068004088679
 31
0.0
  0
LINE
  5
79
100
AcDbEntity
100
AcDbLine
  8
Dimension
 62
256
370
-1
  6
CENTER
 10
13.734633135269819
 20
8.6522409349774296
 30
0.0
 11
13.3997851319503667
 21
7.8438463440300534
 31
0.0
  0
LINE
  5
7A
100
AcDbEntity
100
AcDbLine
  8
Dimension
 62
256
370
-1
  6
CENTER
 10
15.9142135623730923
 20
9.0857864376269042
 30
0.0
 11
16.5329319959113228
 21
8.4670680040886754
 31
0.0
  0
LINE
  5
7B
100
AcDbEntity
100
AcDbLine
  8
Dimension
 62
256
370
-1
  6
CENTER
 10
16.3477590650225721
 20
9.7346331352698172
 30
0.0
 11
17.1561536559699519
 21
9.3997851319503667
 31
0.0
  0
LINE
  5
7C
100
AcDbEntity
100
AcDbLine
  8
Dimension
 62
256
370
-1
  6
CENTER
 10
15.9142135623730976
 20
11.9142135623730958
 30
0.0
 11
16.7500000000000036
 21
12.75
 31
0.0
  0
LINE
  5
7D
100
AcDbEntity
100
AcDbLine
  8
Section
 62
256
370
-1
  6
ByLayer
 10
10.0
 20
7.7000000000000002
 30
0.0
 11
10.5
 21
7.7000000000000002
 31
0.0
  0
LINE
  5
7E
100
AcDbEntity
100
AcDbLine
  8
Section
 62
256
370
-1
  6
ByLayer
 10
10.5
 20
7.7000000000000002
 30
0.0
 11
10.3000000000000007
 21
7.8000000000000016
 31
0.0
  0
LINE
  5
7F
100
AcDbEntity
100
AcDbLine
  8
Section
 62
256
370
-1
  6
ByLayer
 10
10.3000000000000007
 20
7.8000000000000016
 30
0.0
 11
10.3000000000000007
 21
7.6000000000000005
 31
0.0
  0
LINE
  5
80
100
AcDbEntity
100
AcDbLine
  8
Section
 62
256
370
-1
  6
ByLayer
 10
10.3000000000000007
 20
7.6000000000000005
 30
0.0
 11
10.5
 21
7.7000000000000002
 31
0.0
  0
MTEXT
  5
81
100
AcDbEntity
100
AcDbMText
  8
Section
 62
256
370
-1
  6
ByLayer
 10
10.7000000000000011
 20
7.9000000000000012
 30
0.0
 40
0.5
 41
100.0
 71
1
 72
2
  1
B
  7
normallatin1
 50
0.0
 73
1
 44
1.0
  0
LINE
  5
82
100
AcDbEntity
100
AcDbLine
  8
Section
 62
256
370
-1
  6
ByLayer
 10
10.0
 20
1.6000000000000001
 30
0.0
 11
10.5
 21
1.6000000000000001
 31
0.0
  0
LINE
  5
83
100
AcDbEntity
100
AcDbLine
  8
Section
 62
256
370
-1
  6
ByLayer
 10
10.5
 20
1.5999999999999999
 30
0.0
 11
10.2999999999999989
 21
1.7000000000000013
 31
0.0
  0
LINE
  5
84
100
AcDbEntity
100
AcDbLine
  8
Section
 62
256
370
-1
  6
ByLayer
 10
10.2999999999999989
 20
1.7000000000000013
 30
0.0
 11
10.2999999999999989
 21
1.5000000000000002
 31
0.0
  0
LINE
  5
85
100
AcDbEntity
100
AcDbLine
  8
Section
 62
256
370
-1
  6
ByLayer
 10
10.2999999999999989
 20
1.5000000000000002
 30
0.0
 11
10.5
 21
1.5999999999999999
 31
0.0
  0
MTEXT
  5
86
100
AcDbEntity
100
AcDbMText
  8
Section
 62
256
370
-1
  6
ByLayer
 10
10.7000000000000011
 20
1.8
 30
0.0
 40
0.5
 41
100.0
 71
1
 72
2
  1
B
  7
normallatin1
 50
0.0
 73
1
 44
1.0
  0
LINE
  5
87
100
AcDbEntity
100
AcDbLine
  8
Section
 62
256
370
-1
  6
DIVIDE2
 10
10.0
 20
1.6000000000000001
 30
0.0
 11
10.0
 21
7.7000000000000002
 31
0.0
  0
LINE
  5
88
100
AcDbEntity
100
AcDbLine
  8
Section
 62
256
370
-1
  6
ByLayer
 10
1.5000000000000004
 20
7.7000000000000002
 30
0.0
 11
2.0000000000000004
 21
7.7000000000000002
 31
0.0
  0
LINE
  5
89
100
AcDbEntity
100
AcDbLine
  8
Section
 62
256
370
-1
  6
ByLayer
 10
2.0000000000000004
 20
7.7000000000000002
 30
0.0
 11
1.8
 21
7.8000000000000016
 31
0.0
  0
LINE
  5
8A
100
AcDbEntity
100
AcDbLine
  8
Section
 62
256
370
-1
  6
ByLayer
 10
1.8
 20
7.8000000000000016
 30
0.0
 11
1.8
 21
7.6000000000000005
 31
0.0
  0
LINE
  5
8B
100
AcDbEntity
100
AcDbLine
  8
Section
 62
256
370
-1
  6
ByLayer
 10
1.8
 20
7.6000000000000005
 30
0.0
 11
2.0
 21
7.7000000000000002
 31
0.0
  0
MTEXT
  5
8C
100
AcDbEntity
100
AcDbMText
  8
Section
 62
256
370
-1
  6
ByLayer
 10
2.1000000000000001
 20
7.9000000000000012
 30
0.0
 40
0.5
 41
100.0
 71
1
 72
2
  1
A
  7
normallatin1
 50
0.0
 73
1
 44
1.0
  0
LINE
  5
8D
100
AcDbEntity
100
AcDbLine
  8
Section
 62
256
370
-1
  6
ByLayer
 10
1.5000000000000004
 20
1.6000000000000001
 30
0.0
 11
2.0
 21
1.6000000000000001
 31
0.0
  0
LINE
  5
8E
100
AcDbEntity
100
AcDbLine
  8
Section
 62
256
370
-1
  6
ByLayer
 10
2.0
 20
1.5999999999999999
 30
0.0
 11
1.7999999999999996
 21
1.7000000000000013
 31
0.0
  0
LINE
  5
8F
100
AcDbEntity
100
AcDbLine
  8
Section
 62
256
370
-1
  6
ByLayer
 10
1.7999999999999996
 20
1.7000000000000013
 30
0.0
 11
1.7999999999999996
 21
1.5000000000000002
 31
0.0
  0
LINE
  5
90
100
AcDbEntity
100
AcDbLine
  8
Section
 62
256
370
-1
  6
ByLayer
 10
1.7999999999999996
 20
1.5000000000000002
 30
0.0
 11
1.9999999999999996
 21
1.5999999999999999
 31
0.0
  0
MTEXT
  5
91
100
AcDbEntity
100
AcDbMText
  8
Section
 62
256
370
-1
  6
ByLayer
 10
2.1000000000000001
 20
1.8
 30
0.0
 40
0.5
 41
100.0
 71
1
 72
2
  1
A
  7
normallatin1
 50
0.0
 73
1
 44
1.0
  0
LINE
  5
92
100
AcDbEntity
100
AcDbLine
  8
Section
 62
256
370
-1
  6
DIVIDE2
 10
1.5000000000000004
 20
1.6000000000000001
 30
0.0
 11
1.5000000000000004
 21
7.7000000000000002
 31
0.0
  0
LEADER
  5
93
  8
Dimension
 62
256
370
-1
  6
ByLayer
100
AcDbEntity
100
AcDbLeader
  3
Standard
 71
1
 72
0
 73
3
 74
0
 75
0
 40
1.0
 41
10.0
 76
3
 10
16.8207106781186582
 20
12.8207106781186546
 10
17.1035533905932766
 20
13.1035533905932731
 10
17.1035533905932766
 20
14.2000000000000011
  0
LINE
  5
94
100
AcDbEntity
100
AcDbLine
  8
Dimension
 62
256
370
-1
  6
CENTER
 10
6.8000000000000007
 20
13.5
 30
0.0
 11
12.6250000000000018
 21
13.5
 31
0.0
  0
LINE
  5
95
100
AcDbEntity
100
AcDbLine
  8
Dimension
 62
256
370
-1
  6
CENTER
 10
14.5000000000000018
 20
9.6000000000000014
 30
0.0
 11
14.5000000000000018
 21
13.5
 31
0.0
  0
LINE
  5
96
100
AcDbEntity
100
AcDbLine
  8
Dimension
 62
256
370
-1
  6
CENTER
 10
14.5000000000000018
 20
7.5
 30
0.0
 11
14.5000000000000018
 21
8.8000000000000007
 31
0.0
  0
LINE
  5
97
100
AcDbEntity
100
AcDbLine
  8
Dimension
 62
256
370
-1
  6
CENTER
 10
11.3750000000000018
 20
10.5000000000000018
 30
0.0
 11
20.1000000000000014
 21
10.5000000000000018
 31
0.0
  0
DIMENSION
  5
98
100
AcDbEntity
  8
Dimension
 62
256
370
-1
  6
ByLayer
100
AcDbDimension
 10
14.5000000000000018
 20
7.5
 30
0.0
 11
0.0
 21
0.0
 31
0.0
 70
2
 71
5
 72
1
 41
1.0
 42
0.0
  1
22.5\S+0.1^\~-0.1;
  3
Standard
100
AcDb2LineAngularDimension
 13
15.2653668647301828
 23
12.3477590650225739
 33
0.0
 14
15.6002148680496369
 24
13.1561536559699501
 34
0.0
 15
14.5000000000000018
 25
13.5
 35
0.0
 16
15.2000000000000011
 26
14.1000000000000014
 36
0.0
  0
DIMENSION
  5
99
100
AcDbEntity
  8
Dimension
 62
256
370
-1
  6
ByLayer
100
AcDbDimension
 10
2.9391153242036303
 20
10.6802423188407118
 30
0.0
 11
0.0
 21
0.0
 31
0.0
 70
2
 71
5
 72
1
 41
1.0
 42
0.0
  1
22.5%%d\S+0.1^\~-0.1;
  3
Standard
100
AcDb2LineAngularDimension
 13
2.2499669757058953
 23
11.6291933723192749
 33
0.0
 14
1.9027355800686425
 24
11.1095248646301812
 34
0.0
 15
3.0610467754637112
 25
11.2932331190927329
 35
0.0
 16
2.0
 26
10.0
 36
0.0
  0
MTEXT
  5
9A
100
AcDbEntity
100
AcDbMText
  8
Dimension
 62
256
370
-1
  6
ByLayer
 10
18.2471929473600341
 20
15.2077591830580445
 30
0.0
 40
0.2
 41
100.0
 71
1
 72
2
  1
Dimensions\~in\~Inches
  7
normallatin1
 50
0.0
 73
0
 44
1.0
  0
MTEXT
  5
9B
100
AcDbEntity
100
AcDbMText
  8
Dimension
 62
256
370
-1
  6
ByLayer
 10
16.0
 20
15.1999999999999993
 30
0.0
 40
0.2
 41
100.0
 71
1
 72
2
  1
Drill\~#40\PTap\~M3x0.5\P16\~places
  7
normallatin1
 50
0.0
 73
1
 44
1.0
  0
MTEXT
  5
9C
100
AcDbEntity
100
AcDbMText
  8
Dimension
 62
256
370
-1
  6
ByLayer
 10
3.5000000000000004
 20
8.3000000000000007
 30
0.0
 40
0.2
 41
100.0
 71
1
 72
2
  1
All\~material\PAluminum\~6061-T6
  7
normallatin1
 50
0.0
 73
0
 44
1.0
  0
LINE
  5
9D
100
AcDbEntity
100
AcDbLine
  8
0
 62
256
370
-1
  6
ByLayer
 10
10.0
 20
1.3
 30
0.0
 11
10.0
 21
8.0
 31
0.0
  0
LINE
  5
9E
100
AcDbEntity
100
AcDbLine
  8
0
 62
256
370
-1
  6
ByLayer
 10
1.0
 20
1.3000000000000012
 30
0.0
 11
1.0
 21
8.0000000000000018
 31
0.0
  0
LINE
  5
9F
100
AcDbEntity
100
AcDbLine
  8
0
 62
256
370
-1
  6
ByLayer
 10
19.0
 20
1.2999999999999978
 30
0.0
 11
19.0
 21
7.9999999999999982
 31
0.0
  0
CIRCLE
  5
A0
100
AcDbEntity
100
AcDbCircle
  8
0
 62
256
370
-1
  6
ByLayer
 10
-1.9999999999999993
 20
4.5068999999999999
 30
0.0
 40
2.75
  0
LINE
  5
A1
100
AcDbEntity
100
AcDbLine
  8
0
 62
256
370
-1
  6
ByLayer
 10
-4.7499999999999991
 20
4.5068999999999999
 30
0.0
 11
19.0
 21
4.5068999999999999
 31
0.0
  0
LINE
  5
A2
100
AcDbEntity
100
AcDbLine
  8
0
 62
256
370
-1
  6
ByLayer
 10
-1.9999999999999996
 20
1.7568999999999999
 30
0.0
 11
-1.9999999999999989
 21
12.0
 31
0.0
  0
LINE
  5
A3
100
AcDbEntity
100
AcDbLine
  8
0
 62
256
370
-1
  6
ByLayer
 10
0.5949945680940261
 20
4.9026627970925292
 30
0.0
 11
0.8404177810097397
 21
4.9514805093835221
 31
0.0
  0
LINE
  5
A4
100
AcDbEntity
100
AcDbLine
  8
0
 62
256
370
-1
  6
ByLayer
 10
0.5489142340338147
 20
5.1343242803237805
 30
0.0
 11
0.794337446949531
 21
5.1831419926147602
 31
0.0
  0
LINE
  5
A5
100
AcDbEntity
100
AcDbLine
  8
0
 62
256
370
-1
  6
ByLayer
 10
0.2460105028462596
 20
5.865598576250191
 30
0.0
 11
0.4540702563625179
 21
6.0046196589605181
 31
0.0
  0
LINE
  5
A6
100
AcDbEntity
100
AcDbLine
  8
0
 62
256
370
-1
  6
ByLayer
 10
0.1147848138070253
 20
6.0619916986760574
 30
0.0
 11
0.3228445673232911
 21
6.2010127813863738
 31
0.0
  0
LINE
  5
A7
100
AcDbEntity
100
AcDbLine
  8
0
 62
256
370
-1
  6
ByLayer
 10
-0.4449083013239412
 20
6.6216848138070246
 30
0.0
 11
-0.3058872186136257
 21
6.8297445673232904
 31
0.0
  0
LINE
  5
A8
100
AcDbEntity
100
AcDbLine
  8
0
 62
256
370
-1
  6
ByLayer
 10
-0.6413014237498087
 20
6.7529105028462588
 30
0.0
 11
-0.5022803410394818
 21
6.9609702563625167
 31
0.0
  0
LINE
  5
A9
100
AcDbEntity
100
AcDbLine
  8
0
 62
256
370
-1
  6
ByLayer
 10
-1.3725757196762194
 20
7.0558142340338144
 30
0.0
 11
-1.3237580073852397
 21
7.3012374469495303
 31
0.0
  0
LINE
  5
AA
100
AcDbEntity
100
AcDbLine
  8
0
 62
256
370
-1
  6
ByLayer
 10
-1.6042372029074696
 20
7.1018945680940249
 30
0.0
 11
-1.5554194906164767
 21
7.347317781009739
 31
0.0
  0
LINE
  5
AB
100
AcDbEntity
100
AcDbLine
  8
0
 62
256
370
-1
  6
ByLayer
 10
-2.3957627970925288
 20
7.1018945680940249
 30
0.0
 11
-2.4445805093835222
 21
7.347317781009739
 31
0.0
  0
LINE
  5
AC
100
AcDbEntity
100
AcDbLine
  8
0
 62
256
370
-1
  6
ByLayer
 10
-2.6274242803237788
 20
7.0558142340338144
 30
0.0
 11
-2.6762419926147594
 21
7.3012374469495303
 31
0.0
  0
LINE
  5
AD
100
AcDbEntity
100
AcDbLine
  8
0
 62
256
370
-1
  6
ByLayer
 10
-3.3586985762501897
 20
6.7529105028462588
 30
0.0
 11
-3.4977196589605173
 21
6.9609702563625167
 31
0.0
  0
LINE
  5
AE
100
AcDbEntity
100
AcDbLine
  8
0
 62
256
370
-1
  6
ByLayer
 10
-3.555091698676057
 20
6.6216848138070246
 30
0.0
 11
-3.694112781386373
 21
6.8297445673232904
 31
0.0
  0
LINE
  5
AF
100
AcDbEntity
100
AcDbLine
  8
0
 62
256
370
-1
  6
ByLayer
 10
-4.1147848138070238
 20
6.0619916986760582
 30
0.0
 11
-4.3228445673232905
 21
6.2010127813863747
 31
0.0
  0
LINE
  5
B0
100
AcDbEntity
100
AcDbLine
  8
0
 62
256
370
-1
  6
ByLayer
 10
-4.2460105028462571
 20
5.865598576250191
 30
0.0
 11
-4.4540702563625167
 21
6.0046196589605172
 31
0.0
  0
LINE
  5
B1
100
AcDbEntity
100
AcDbLine
  8
0
 62
256
370
-1
  6
ByLayer
 10
-4.5489142340338136
 20
5.1343242803237796
 30
0.0
 11
-4.7943374469495303
 21
5.1831419926147593
 31
0.0
  0
LINE
  5
B2
100
AcDbEntity
100
AcDbLine
  8
0
 62
256
370
-1
  6
ByLayer
 10
-4.5949945680940241
 20
4.9026627970925301
 30
0.0
 11
-4.8404177810097382
 21
4.951480509383523
 31
0.0
  0
LINE
  5
B3
100
AcDbEntity
100
AcDbLine
  8
0
 62
256
370
-1
  6
ByLayer
 10
-4.594994568094025
 20
4.1111372029074706
 30
0.0
 11
-4.8404177810097382
 21
4.0623194906164777
 31
0.0
  0
LINE
  5
B4
100
AcDbEntity
100
AcDbLine
  8
0
 62
256
370
-1
  6
ByLayer
 10
-4.5489142340338136
 20
3.8794757196762206
 30
0.0
 11
-4.7943374469495295
 21
3.8306580073852401
 31
0.0
  0
LINE
  5
B5
100
AcDbEntity
100
AcDbLine
  8
0
 62
256
370
-1
  6
ByLayer
 10
-4.2460105028462589
 20
3.1482014237498097
 30
0.0
 11
-4.4540702563625167
 21
3.0091803410394817
 31
0.0
  0
LINE
  5
B6
100
AcDbEntity
100
AcDbLine
  8
0
 62
256
370
-1
  6
ByLayer
 10
-4.1147848138070238
 20
2.9518083013239425
 30
0.0
 11
-4.3228445673232896
 21
2.8127872186136265
 31
0.0
  0
LINE
  5
B7
100
AcDbEntity
100
AcDbLine
  8
0
 62
256
370
-1
  6
ByLayer
 10
-3.5550916986760579
 20
2.3921151861929753
 30
0.0
 11
-3.6941127813863739
 21
2.1840554326767094
 31
0.0
  0
LINE
  5
B8
100
AcDbEntity
100
AcDbLine
  8
0
 62
256
370
-1
  6
ByLayer
 10
-3.3586985762501893
 20
2.260889497153741
 30
0.0
 11
-3.4977196589605155
 21
2.0528297436374823
 31
0.0
  0
LINE
  5
B9
100
AcDbEntity
100
AcDbLine
  8
0
 62
256
370
-1
  6
ByLayer
 10
-2.6274242803237806
 20
1.9579857659661859
 30
0.0
 11
-2.6762419926147611
 21
1.7125625530504696
 31
0.0
  0
LINE
  5
BA
100
AcDbEntity
100
AcDbLine
  8
0
 62
256
370
-1
  6
ByLayer
 10
-2.3957627970925293
 20
1.911905431905975
 30
0.0
 11
-2.4445805093835222
 21
1.6664822189902613
 31
0.0
  0
LINE
  5
BB
100
AcDbEntity
100
AcDbLine
  8
0
 62
256
370
-1
  6
ByLayer
 10
-1.6042372029074703
 20
1.9119054319059745
 30
0.0
 11
-1.5554194906164773
 21
1.6664822189902608
 31
0.0
  0
LINE
  5
BC
100
AcDbEntity
100
AcDbLine
  8
0
 62
256
370
-1
  6
ByLayer
 10
-1.3725757196762189
 20
1.9579857659661859
 30
0.0
 11
-1.3237580073852384
 21
1.71256255305047
 31
0.0
  0
LINE
  5
BD
100
AcDbEntity
100
AcDbLine
  8
0
 62
256
370
-1
  6
ByLayer
 10
-0.641301423749808
 20
2.2608894971537414
 30
0.0
 11
-0.5022803410394814
 21
2.0528297436374823
 31
0.0
  0
LINE
  5
BE
100
AcDbEntity
100
AcDbLine
  8
0
 62
256
370
-1
  6
ByLayer
 10
-0.4449083013239401
 20
2.3921151861929766
 30
0.0
 11
-0.3058872186136239
 21
2.1840554326767108
 31
0.0
  0
LINE
  5
BF
100
AcDbEntity
100
AcDbLine
  8
0
 62
256
370
-1
  6
ByLayer
 10
0.1147848138070249
 20
2.9518083013239416
 30
0.0
 11
0.3228445673232911
 21
2.8127872186136251
 31
0.0
  0
LINE
  5
C0
100
AcDbEntity
100
AcDbLine
  8
0
 62
256
370
-1
  6
ByLayer
 10
0.2460105028462596
 20
3.1482014237498097
 30
0.0
 11
0.4540702563625183
 21
3.0091803410394835
 31
0.0
  0
LINE
  5
C1
100
AcDbEntity
100
AcDbLine
  8
0
 62
256
370
-1
  6
ByLayer
 10
0.5489142340338147
 20
3.8794757196762184
 30
0.0
 11
0.794337446949531
 21
3.8306580073852379
 31
0.0
  0
LINE
  5
C2
100
AcDbEntity
100
AcDbLine
  8
0
 62
256
370
-1
  6
ByLayer
 10
0.5949945680940256
 20
4.1111372029074698
 30
0.0
 11
0.8404177810097393
 21
4.0623194906164768
 31
0.0
  0
LINE
  5
C3
100
AcDbEntity
100
AcDbLine
  8
0
 62
256
370
-1
  6
ByLayer
 10
1.0
 20
8.0
 30
0.0
 11
2.0
 21
8.0
 31
0.0
  0
LINE
  5
C4
100
AcDbEntity
100
AcDbLine
  8
0
 62
256
370
-1
  6
ByLayer
 10
1.0
 20
1.3
 30
0.0
 11
2.0
 21
1.3
 31
0.0
  0
LINE
  5
C5
100
AcDbEntity
100
AcDbLine
  8
0
 62
256
370
-1
  6
ByLayer
 10
1.5
 20
1.3000000000000009
 30
0.0
 11
1.5
 21
8.0000000000000018
 31
0.0
  0
LINE
  5
C6
100
AcDbEntity
100
AcDbLine
  8
0
 62
256
370
-1
  6
ByLayer
 10
18.5
 20
1.2999999999999978
 30
0.0
 11
18.5
 21
7.9999999999999982
 31
0.0
  0
LINE
  5
C7
100
AcDbEntity
100
AcDbLine
  8
0
 62
256
370
-1
  6
ByLayer
 10
-3.3499999999999996
 20
2.1110702898578126
 30
0.0
 11
-3.3499999999999992
 21
6.9027297101421876
 31
0.0
  0
LINE
  5
C8
100
AcDbEntity
100
AcDbLine
  8
0
 62
256
370
-1
  6
ByLayer
 10
-0.6499999999999995
 20
2.1110702898578118
 30
0.0
 11
-0.6499999999999991
 21
6.9027297101421876
 31
0.0
  0
LINE
  5
C9
100
AcDbEntity
100
AcDbLine
  8
0
 62
256
370
-1
  6
ByLayer
 10
2.015625
 20
6.9027297101421876
 30
0.0
 11
2.015625
 21
2.1110702898578118
 31
0.0
  0
LINE
  5
CA
100
AcDbEntity
100
AcDbLine
  8
0
 62
256
370
-1
  6
ByLayer
 10
17.984375
 20
2.1110702898578118
 30
0.0
 11
17.984375
 21
6.9027297101421876
 31
0.0
  0
LINE
  5
CB
100
AcDbEntity
100
AcDbLine
  8
Module
 62
256
370
-1
  6
ByLayer
 10
3.3656250000000001
 20
2.1110702898578118
 30
0.0
 11
16.6343749999999986
 21
2.1110702898578118
 31
0.0
  0
LINE
  5
CC
100
AcDbEntity
100
AcDbLine
  8
Module
 62
256
370
-1
  6
ByLayer
 10
3.3656250000000001
 20
6.9027297101421876
 30
0.0
 11
16.6343749999999986
 21
6.9027297101421876
 31
0.0
  0
LINE
  5
CD
100
AcDbEntity
100
AcDbLine
  8
0
 62
256
370
-1
  6
ByLayer
 10
-0.6499999999999991
 20
6.9027297101421876
 30
0.0
 11
19.0
 21
6.9027297101421876
 31
0.0
  0
LINE
  5
CE
100
AcDbEntity
100
AcDbLine
  8
0
 62
256
370
-1
  6
ByLayer
 10
-0.6499999999999995
 20
2.1110702898578118
 30
0.0
 11
16.6343749999999986
 21
2.1110702898578118
 31
0.0
  0
LINE
  5
CF
100
AcDbEntity
100
AcDbLine
  8
Module
 62
256
370
-1
  6
ByLayer
 10
1.015625
 20
7.2568999999999999
 30
0.0
 11
1.015625
 21
1.7568999999999999
 31
0.0
  0
LINE
  5
D0
100
AcDbEntity
100
AcDbLine
  8
Module
 62
256
370
-1
  6
ByLayer
 10
1.015625
 20
7.2568999999999999
 30
0.0
 11
2.015625
 21
7.2568999999999999
 31
0.0
  0
LINE
  5
D1
100
AcDbEntity
100
AcDbLine
  8
Module
 62
256
370
-1
  6
ByLayer
 10
1.015625
 20
1.7568999999999999
 30
0.0
 11
2.015625
 21
1.7568999999999999
 31
0.0
  0
LINE
  5
D2
100
AcDbEntity
100
AcDbLine
  8
Module
 62
256
370
-1
  6
ByLayer
 10
18.984375
 20
1.7568999999999999
 30
0.0
 11
18.984375
 21
7.2568999999999999
 31
0.0
  0
LINE
  5
D3
100
AcDbEntity
100
AcDbLine
  8
Module
 62
256
370
-1
  6
ByLayer
 10
17.984375
 20
1.7568999999999999
 30
0.0
 11
18.984375
 21
1.7568999999999999
 31
0.0
  0
LINE
  5
D4
100
AcDbEntity
100
AcDbLine
  8
Module
 62
256
370
-1
  6
ByLayer
 10
17.984375
 20
7.2568999999999999
 30
0.0
 11
18.984375
 21
7.2568999999999999
 31
0.0
  0
LINE
  5
D5
100
AcDbEntity
100
AcDbLine
  8
0
 62
256
370
-1
  6
ByLayer
 10
16.6343749999999986
 20
1.7568999999999999
 30
0.0
 11
16.6343749999999986
 21
7.2568999999999999
 31
0.0
  0
LINE
  5
D6
100
AcDbEntity
100
AcDbLine
  8
0
 62
256
370
-1
  6
ByLayer
 10
3.3656250000000001
 20
7.2568999999999999
 30
0.0
 11
3.3656250000000001
 21
1.7568999999999999
 31
0.0
  0
ELLIPSE
  5
D7
100
AcDbEntity
100
AcDbEllipse
  8
Module
 62
256
370
-1
  6
ByLayer
 10
3.3656250000000001
 20
7.2568999999999999
 30
0.0
 11
-1.3500000000000001
 21
0.0
 31
0.0
 40
0.2623483628576387
 41
0.0
 42
1.570796347827135
  0
ELLIPSE
  5
D8
100
AcDbEntity
100
AcDbEllipse
  8
Module
 62
256
370
-1
  6
ByLayer
 10
3.3656250000000001
 20
1.7569000000000004
 30
0.0
 11
-1.3500000000000001
 21
-0.0000000000000004
 31
0.0
 40
0.2623483628576387
 41
4.7123889593524515
 42
0.0
  0
ELLIPSE
  5
D9
100
AcDbEntity
100
AcDbEllipse
  8
Module
 62
256
370
-1
  6
ByLayer
 10
16.6343749999999986
 20
7.256900000000007
 30
0.0
 11
1.3500000000000014
 21
0.0000000000000036
 31
0.0
 40
0.2623483628576387
 41
-7.853981655006721
 42
-6.2831853071795862
  0
ELLIPSE
  5
DA
100
AcDbEntity
100
AcDbEllipse
  8
Module
 62
256
370
-1
  6
ByLayer
 10
16.6343750000000021
 20
1.7569000000000017
 30
0.0
 11
1.3499999999999979
 21
-0.0000000000000027
 31
0.0
 40
0.2623483628576387
 41
-6.2831853071795862
 42
-4.7123889593524515
  0
LINE
  5
DB
100
AcDbEntity
100
AcDbLine
  8
Module
 62
256
370
-1
  6
ByLayer
 10
3.3656250000000001
 20
5.8568999999999996
 30
0.0
 11
16.6343749999999986
 21
5.8569000000000004
 31
0.0
  0
ARC
  5
DC
100
AcDbEntity
  8
Module
 62
7
370
70
  6
CONTINUOUS
100
AcDbCircle
 10
3.3656250000000001
 20
4.5068999999999999
 30
0.0
 40
1.3500000000000001
100
AcDbArc
 50
90.0
 51
270.0
  0
LINE
  5
DD
100
AcDbEntity
100
AcDbLine
  8
Module
 62
256
370
-1
  6
ByLayer
 10
3.3656250000000001
 20
3.1568999999999994
 30
0.0
 11
16.6343750000000021
 21
3.1568999999999998
 31
0.0
  0
ARC
  5
DE
100
AcDbEntity
  8
Module
 62
7
370
70
  6
CONTINUOUS
100
AcDbCircle
 10
16.6343749999999986
 20
4.5068999999999999
 30
0.0
 40
1.3500000000000001
100
AcDbArc
 50
270.0000000000001705
 51
90.0
  0
LINE
  5
DF
100
AcDbEntity
100
AcDbLine
  8
0
 62
256
370
-1
  6
ByLayer
 10
-1.5798273196163566
 20
7.2246113383616049
 30
0.0
 11
1.5
 21
7.2246113383616049
 31
0.0
  0
LINE
  5
E0
100
AcDbEntity
100
AcDbLine
  8
0
 62
256
370
-1
  6
ByLayer
 10
-1.3481658363851128
 20
7.1785310043013952
 30
0.0
 11
1.5
 21
7.1785310043013952
 31
0.0
  0
LINE
  5
E1
100
AcDbEntity
100
AcDbLine
  8
0
 62
256
370
-1
  6
ByLayer
 10
-0.5717879573314042
 20
6.8569447572708908
 30
0.0
 11
1.5
 21
6.8569447572708908
 31
0.0
  0
LINE
  5
E2
100
AcDbEntity
100
AcDbLine
  8
0
 62
256
370
-1
  6
ByLayer
 10
-0.3753948349055423
 20
6.7257190682316601
 30
0.0
 11
1.5
 21
6.7257190682316601
 31
0.0
  0
LINE
  5
E3
100
AcDbEntity
100
AcDbLine
  8
0
 62
256
370
-1
  6
ByLayer
 10
0.2188190682316608
 20
6.1315051650944561
 30
0.0
 11
1.5
 21
6.1315051650944561
 31
0.0
  0
LINE
  5
E4
100
AcDbEntity
100
AcDbLine
  8
0
 62
256
370
-1
  6
ByLayer
 10
0.3500447572708913
 20
5.9351120426685959
 30
0.0
 11
1.5
 21
5.9351120426685959
 31
0.0
  0
LINE
  5
E5
100
AcDbEntity
100
AcDbLine
  8
0
 62
256
370
-1
  6
ByLayer
 10
0.6716310043013959
 20
5.1587341636148869
 30
0.0
 11
1.5
 21
5.1587341636148869
 31
0.0
  0
LINE
  5
E6
100
AcDbEntity
100
AcDbLine
  8
0
 62
256
370
-1
  6
ByLayer
 10
0.7177113383616055
 20
4.9270726803836427
 30
0.0
 11
1.5
 21
4.9270726803836427
 31
0.0
  0
LINE
  5
E7
100
AcDbEntity
100
AcDbLine
  8
0
 62
256
370
-1
  6
ByLayer
 10
0.7177113383616054
 20
4.0867273196163563
 30
0.0
 11
1.5
 21
4.0867273196163563
 31
0.0
  0
LINE
  5
E8
100
AcDbEntity
100
AcDbLine
  8
0
 62
256
370
-1
  6
ByLayer
 10
0.6716310043013951
 20
3.8550658363851116
 30
0.0
 11
1.5
 21
3.8550658363851116
 31
0.0
  0
LINE
  5
E9
100
AcDbEntity
100
AcDbLine
  8
0
 62
256
370
-1
  6
ByLayer
 10
0.350044757270892
 20
3.0786879573314052
 30
0.0
 11
1.5
 21
3.0786879573314052
 31
0.0
  0
LINE
  5
EA
100
AcDbEntity
100
AcDbLine
  8
0
 62
256
370
-1
  6
ByLayer
 10
0.2188190682316607
 20
2.8822948349055424
 30
0.0
 11
1.5
 21
2.8822948349055424
 31
0.0
  0
LINE
  5
EB
100
AcDbEntity
100
AcDbLine
  8
0
 62
256
370
-1
  6
ByLayer
 10
-0.3753948349055409
 20
2.288080931768341
 30
0.0
 11
1.5
 21
2.288080931768341
 31
0.0
  0
LINE
  5
EC
100
AcDbEntity
100
AcDbLine
  8
0
 62
256
370
-1
  6
ByLayer
 10
-0.571787957331404
 20
2.1568552427291094
 30
0.0
 11
1.5
 21
2.1568552427291094
 31
0.0
  0
LINE
  5
ED
100
AcDbEntity
100
AcDbLine
  8
0
 62
256
370
-1
  6
ByLayer
 10
-1.3481658363851119
 20
1.8352689956986048
 30
0.0
 11
1.5
 21
1.8352689956986048
 31
0.0
  0
LINE
  5
EE
100
AcDbEntity
100
AcDbLine
  8
0
 62
256
370
-1
  6
ByLayer
 10
-1.5798273196163573
 20
1.789188661638395
 30
0.0
 11
1.5
 21
1.789188661638395
 31
0.0
  0
LINE
  5
EF
100
AcDbEntity
100
AcDbLine
  8
0
 62
256
370
-1
  6
ByLayer
 10
1.6181000000000001
 20
1.7568999999999999
 30
0.0
 11
1.6181000000000001
 21
7.2568999999999999
 31
0.0
  0
LINE
  5
F0
100
AcDbEntity
100
AcDbLine
  8
0
 62
256
370
-1
  6
ByLayer
 10
-1.9999999999999993
 20
4.5068999999999999
 30
0.0
 11
0.6971595211088844
 21
5.0433983855443527
 31
0.0
  0
LINE
  5
F1
100
AcDbEntity
100
AcDbLine
  8
0
 62
256
370
-1
  6
ByLayer
 10
-1.9999999999999993
 20
4.5068999999999999
 30
0.0
 11
0.286541433832
 21
6.0347181408039061
 31
0.0
  0
LINE
  5
F2
100
AcDbEntity
100
AcDbLine
  8
0
 62
256
370
-1
  6
ByLayer
 10
-1.9999999999999993
 20
4.5068999999999999
 30
0.0
 11
-0.4721818591960933
 21
6.7934414338319993
 31
0.0
  0
LINE
  5
F3
100
AcDbEntity
100
AcDbLine
  8
0
 62
256
370
-1
  6
ByLayer
 10
-1.9999999999999993
 20
4.5068999999999999
 30
0.0
 11
-1.4635016144556472
 21
7.2040595211088831
 31
0.0
  0
LINE
  5
F4
100
AcDbEntity
100
AcDbLine
  8
0
 62
256
370
-1
  6
ByLayer
 10
-1.9999999999999993
 20
4.5068999999999999
 30
0.0
 11
0.6971595211088844
 21
3.9704016144556475
 31
0.0
  0
LINE
  5
F5
100
AcDbEntity
100
AcDbLine
  8
0
 62
256
370
-1
  6
ByLayer
 10
-1.9999999999999993
 20
4.5068999999999999
 30
0.0
 11
0.2865414338320005
 21
2.9790818591960941
 31
0.0
  0
LINE
  5
F6
100
AcDbEntity
100
AcDbLine
  8
0
 62
256
370
-1
  6
ByLayer
 10
-1.9999999999999993
 20
4.5068999999999999
 30
0.0
 11
-0.4721818591960927
 21
2.2203585661680005
 31
0.0
  0
LINE
  5
F7
100
AcDbEntity
100
AcDbLine
  8
0
 62
256
370
-1
  6
ByLayer
 10
-1.9999999999999993
 20
4.5068999999999999
 30
0.0
 11
-1.4635016144556459
 21
1.8097404788911162
 31
0.0
  0
LINE
  5
F8
100
AcDbEntity
100
AcDbLine
  8
0
 62
256
370
-1
  6
ByLayer
 10
-1.4635016144556472
 20
7.2040595211088831
 30
0.0
 11
1.6181000000000001
 21
7.2040595211088831
 31
0.0
  0
LINE
  5
F9
100
AcDbEntity
100
AcDbLine
  8
0
 62
256
370
-1
  6
ByLayer
 10
-0.4721818591960933
 20
6.7934414338319993
 30
0.0
 11
1.6181000000000001
 21
6.7934414338319993
 31
0.0
  0
LINE
  5
FA
100
AcDbEntity
100
AcDbLine
  8
0
 62
256
370
-1
  6
ByLayer
 10
0.286541433832
 20
6.0347181408039061
 30
0.0
 11
1.6181000000000001
 21
6.0347181408039061
 31
0.0
  0
LINE
  5
FB
100
AcDbEntity
100
AcDbLine
  8
0
 62
256
370
-1
  6
ByLayer
 10
0.6971595211088844
 20
5.0433983855443527
 30
0.0
 11
1.6181000000000001
 21
5.0433983855443527
 31
0.0
  0
LINE
  5
FC
100
AcDbEntity
100
AcDbLine
  8
0
 62
256
370
-1
  6
ByLayer
 10
0.6971595211088844
 20
3.9704016144556475
 30
0.0
 11
1.6181000000000001
 21
3.9704016144556475
 31
0.0
  0
LINE
  5
FD
100
AcDbEntity
100
AcDbLine
  8
0
 62
256
370
-1
  6
ByLayer
 10
0.2865414338320005
 20
2.9790818591960941
 30
0.0
 11
1.6181000000000001
 21
2.9790818591960941
 31
0.0
  0
LINE
  5
FE
100
AcDbEntity
100
AcDbLine
  8
0
 62
256
370
-1
  6
ByLayer
 10
-0.4721818591960929
 20
2.220358566168001
 30
0.0
 11
1.6181000000000001
 21
2.220358566168001
 31
0.0
  0
LINE
  5
FF
100
AcDbEntity
100
AcDbLine
  8
0
 62
256
370
-1
  6
ByLayer
 10
-1.4635016144556459
 20
1.8097404788911162
 30
0.0
 11
1.6181000000000001
 21
1.8097404788911162
 31
0.0
  0
MTEXT
  5
100
100
AcDbEntity
100
AcDbMText
  8
Module
 62
256
370
-1
  6
ByLayer
 10
5.3000000000000007
 20
4.9000000000000004
 30
0.0
 40
0.7
 41
100.0
 71
1
 72
0
  1
Module
  7
normallatin1
 50
0.0
 73
1
 44
1.0
  0
CIRCLE
  5
101
100
AcDbEntity
100
AcDbCircle
  8
Module
 62
256
370
-1
  6
ByLayer
 10
3.5
 20
13.5
 30
0.0
 40
2.75
  0
CIRCLE
  5
102
100
AcDbEntity
100
AcDbCircle
  8
Module
 62
256
370
-1
  6
ByLayer
 10
3.5
 20
13.5
 30
0.0
 40
2.625
  0
LINE
  5
103
100
AcDbEntity
100
AcDbLine
  8
0
 62
256
370
-1
  6
ByLayer
 10
0.75
 20
13.5
 30
0.0
 11
12.2500000000000018
 21
13.5
 31
0.0
  0
LINE
  5
104
100
AcDbEntity
100
AcDbLine
  8
0
 62
256
370
-1
  6
ByLayer
 10
3.5
 20
10.75
 30
0.0
 11
3.5
 21
16.25
 31
0.0
  0
LINE
  5
105
100
AcDbEntity
100
AcDbLine
  8
0
 62
256
370
-1
  6
ByLayer
 10
9.5000000000000018
 20
10.75
 30
0.0
 11
9.5000000000000018
 21
16.25
 31
0.0
  0
LINE
  5
106
100
AcDbEntity
100
AcDbLine
  8
ModuleHoles
 62
256
370
-1
  6
ByLayer
 10
6.0626175958161497
 20
14.0688726198486389
 30
0.0
 11
6.1244107373023322
 21
14.081164039909476
 31
0.0
  0
LINE
  5
107
100
AcDbEntity
100
AcDbLine
  8
ModuleHoles
 62
256
370
-1
  6
ByLayer
 10
6.0852480731700203
 20
13.9551015273218688
 30
0.0
 11
6.1470412146562001
 21
13.9673929473827148
 31
0.0
  0
LINE
  5
108
100
AcDbEntity
100
AcDbLine
  8
ModuleHoles
 62
256
370
-1
  6
ByLayer
 10
6.1244107373023322
 20
14.081164039909476
 30
0.0
 11
6.1716310043013944
 21
14.1518341636148843
 31
0.0
  0
LINE
  5
109
100
AcDbEntity
100
AcDbLine
  8
ModuleHoles
 62
256
370
-1
  6
ByLayer
 10
6.1470412146562001
 20
13.9673929473827148
 30
0.0
 11
6.2177113383616041
 21
13.9201726803836436
 31
0.0
  0
LINE
  5
10A
100
AcDbEntity
100
AcDbLine
  8
ModuleHoles
 62
256
370
-1
  6
ByLayer
 10
5.6498518196856242
 20
15.0062410674903308
 30
0.0
 11
5.7022375155367593
 21
15.0412440703905901
 31
0.0
  0
LINE
  5
10B
100
AcDbEntity
100
AcDbLine
  8
ModuleHoles
 62
256
370
-1
  6
ByLayer
 10
5.7142979667158951
 20
14.9097905924632386
 30
0.0
 11
5.7666836625670257
 21
14.9447935953635067
 31
0.0
  0
LINE
  5
10C
100
AcDbEntity
100
AcDbLine
  8
ModuleHoles
 62
256
370
-1
  6
ByLayer
 10
5.7022375155367593
 20
15.0412440703905901
 30
0.0
 11
5.7188190682316602
 21
15.1246051650944544
 31
0.0
  0
LINE
  5
10D
100
AcDbEntity
100
AcDbLine
  8
ModuleHoles
 62
256
370
-1
  6
ByLayer
 10
5.7666836625670257
 20
14.9447935953635067
 30
0.0
 11
5.8500447572708891
 21
14.928212042668596
 31
0.0
  0
LINE
  5
10E
100
AcDbEntity
100
AcDbLine
  8
ModuleHoles
 62
256
370
-1
  6
ByLayer
 10
4.9097905924632368
 20
15.7142979667158968
 30
0.0
 11
4.9447935953635049
 21
15.7666836625670257
 31
0.0
  0
LINE
  5
10F
100
AcDbEntity
100
AcDbLine
  8
ModuleHoles
 62
256
370
-1
  6
ByLayer
 10
5.006241067490329
 20
15.649851819685626
 30
0.0
 11
5.0412440703905901
 21
15.7022375155367584
 31
0.0
  0
LINE
  5
110
100
AcDbEntity
100
AcDbLine
  8
ModuleHoles
 62
256
370
-1
  6
ByLayer
 10
4.9447935953635049
 20
15.7666836625670257
 30
0.0
 11
4.9282120426685969
 21
15.8500447572708882
 31
0.0
  0
LINE
  5
111
100
AcDbEntity
100
AcDbLine
  8
ModuleHoles
 62
256
370
-1
  6
ByLayer
 10
5.0412440703905901
 20
15.7022375155367584
 30
0.0
 11
5.1246051650944544
 21
15.7188190682316602
 31
0.0
  0
LINE
  5
112
100
AcDbEntity
100
AcDbLine
  8
ModuleHoles
 62
256
370
-1
  6
ByLayer
 10
3.9551015273218666
 20
16.0852480731700211
 30
0.0
 11
3.9673929473827139
 21
16.1470412146562019
 31
0.0
  0
LINE
  5
113
100
AcDbEntity
100
AcDbLine
  8
ModuleHoles
 62
256
370
-1
  6
ByLayer
 10
4.0688726198486371
 20
16.0626175958161497
 30
0.0
 11
4.081164039909476
 21
16.1244107373023304
 31
0.0
  0
LINE
  5
114
100
AcDbEntity
100
AcDbLine
  8
ModuleHoles
 62
256
370
-1
  6
ByLayer
 10
3.9673929473827139
 20
16.1470412146562019
 30
0.0
 11
3.9201726803836454
 21
16.2177113383616032
 31
0.0
  0
LINE
  5
115
100
AcDbEntity
100
AcDbLine
  8
ModuleHoles
 62
256
370
-1
  6
ByLayer
 10
4.081164039909476
 20
16.1244107373023304
 30
0.0
 11
4.1518341636148843
 21
16.1716310043013962
 31
0.0
  0
LINE
  5
116
100
AcDbEntity
100
AcDbLine
  8
ModuleHoles
 62
256
370
-1
  6
ByLayer
 10
2.9311273801513607
 20
16.0626175958161497
 30
0.0
 11
2.9188359600905232
 21
16.124410737302334
 31
0.0
  0
LINE
  5
117
100
AcDbEntity
100
AcDbLine
  8
ModuleHoles
 62
256
370
-1
  6
ByLayer
 10
3.0448984726781307
 20
16.0852480731700211
 30
0.0
 11
3.0326070526172852
 21
16.1470412146561983
 31
0.0
  0
LINE
  5
118
100
AcDbEntity
100
AcDbLine
  8
ModuleHoles
 62
256
370
-1
  6
ByLayer
 10
2.9188359600905232
 20
16.124410737302334
 30
0.0
 11
2.8481658363851166
 21
16.1716310043013962
 31
0.0
  0
LINE
  5
119
100
AcDbEntity
100
AcDbLine
  8
ModuleHoles
 62
256
370
-1
  6
ByLayer
 10
3.0326070526172852
 20
16.1470412146561983
 30
0.0
 11
3.079827319616355
 21
16.2177113383616032
 31
0.0
  0
LINE
  5
11A
100
AcDbEntity
100
AcDbLine
  8
ModuleHoles
 62
256
370
-1
  6
ByLayer
 10
1.9937589325096694
 20
15.6498518196856242
 30
0.0
 11
1.958755929609409
 21
15.7022375155367584
 31
0.0
  0
LINE
  5
11B
100
AcDbEntity
100
AcDbLine
  8
ModuleHoles
 62
256
370
-1
  6
ByLayer
 10
2.0902094075367614
 20
15.7142979667158968
 30
0.0
 11
2.0552064046364942
 21
15.7666836625670257
 31
0.0
  0
LINE
  5
11C
100
AcDbEntity
100
AcDbLine
  8
ModuleHoles
 62
256
370
-1
  6
ByLayer
 10
1.958755929609409
 20
15.7022375155367584
 30
0.0
 11
1.8753948349055463
 21
15.7188190682316602
 31
0.0
  0
LINE
  5
11D
100
AcDbEntity
100
AcDbLine
  8
ModuleHoles
 62
256
370
-1
  6
ByLayer
 10
2.0552064046364942
 20
15.7666836625670257
 30
0.0
 11
2.0717879573314031
 21
15.85004475727089
 31
0.0
  0
LINE
  5
11E
100
AcDbEntity
100
AcDbLine
  8
ModuleHoles
 62
256
370
-1
  6
ByLayer
 10
1.2857020332841036
 20
14.9097905924632368
 30
0.0
 11
1.2333163374329739
 21
14.9447935953635049
 31
0.0
  0
LINE
  5
11F
100
AcDbEntity
100
AcDbLine
  8
ModuleHoles
 62
256
370
-1
  6
ByLayer
 10
1.3501481803143749
 20
15.006241067490329
 30
0.0
 11
1.2977624844632407
 21
15.0412440703905901
 31
0.0
  0
LINE
  5
120
100
AcDbEntity
100
AcDbLine
  8
ModuleHoles
 62
256
370
-1
  6
ByLayer
 10
1.2333163374329739
 20
14.9447935953635049
 30
0.0
 11
1.1499552427291118
 21
14.928212042668596
 31
0.0
  0
LINE
  5
121
100
AcDbEntity
100
AcDbLine
  8
ModuleHoles
 62
256
370
-1
  6
ByLayer
 10
1.2977624844632407
 20
15.0412440703905901
 30
0.0
 11
1.2811809317683389
 21
15.1246051650944544
 31
0.0
  0
LINE
  5
122
100
AcDbEntity
100
AcDbLine
  8
ModuleHoles
 62
256
370
-1
  6
ByLayer
 10
0.9147519268299797
 20
13.955101527321867
 30
0.0
 11
0.8529587853437994
 21
13.9673929473827148
 31
0.0
  0
LINE
  5
123
100
AcDbEntity
100
AcDbLine
  8
ModuleHoles
 62
256
370
-1
  6
ByLayer
 10
0.9373824041838494
 20
14.0688726198486371
 30
0.0
 11
0.8755892626976682
 21
14.081164039909476
 31
0.0
  0
LINE
  5
124
100
AcDbEntity
100
AcDbLine
  8
ModuleHoles
 62
256
370
-1
  6
ByLayer
 10
0.8529587853437994
 20
13.9673929473827148
 30
0.0
 11
0.7822886616383968
 21
13.9201726803836454
 31
0.0
  0
LINE
  5
125
100
AcDbEntity
100
AcDbLine
  8
ModuleHoles
 62
256
370
-1
  6
ByLayer
 10
0.8755892626976682
 20
14.081164039909476
 30
0.0
 11
0.8283689956986047
 21
14.1518341636148843
 31
0.0
  0
LINE
  5
126
100
AcDbEntity
100
AcDbLine
  8
ModuleHoles
 62
256
370
-1
  6
ByLayer
 10
0.9373824041838503
 20
12.9311273801513611
 30
0.0
 11
0.8755892626976678
 21
12.9188359600905223
 31
0.0
  0
LINE
  5
127
100
AcDbEntity
100
AcDbLine
  8
ModuleHoles
 62
256
370
-1
  6
ByLayer
 10
0.9147519268299797
 20
13.0448984726781312
 30
0.0
 11
0.8529587853437999
 21
13.0326070526172852
 31
0.0
  0
LINE
  5
128
100
AcDbEntity
100
AcDbLine
  8
ModuleHoles
 62
256
370
-1
  6
ByLayer
 10
0.8755892626976678
 20
12.9188359600905223
 30
0.0
 11
0.8283689956986056
 21
12.8481658363851174
 31
0.0
  0
LINE
  5
129
100
AcDbEntity
100
AcDbLine
  8
ModuleHoles
 62
256
370
-1
  6
ByLayer
 10
0.8529587853437999
 20
13.0326070526172852
 30
0.0
 11
0.7822886616383959
 21
13.0798273196163546
 31
0.0
  0
LINE
  5
12A
100
AcDbEntity
100
AcDbLine
  8
ModuleHoles
 62
256
370
-1
  6
ByLayer
 10
1.3501481803143762
 20
11.9937589325096692
 30
0.0
 11
1.2977624844632407
 21
11.9587559296094099
 31
0.0
  0
LINE
  5
12B
100
AcDbEntity
100
AcDbLine
  8
ModuleHoles
 62
256
370
-1
  6
ByLayer
 10
1.285702033284104
 20
12.0902094075367614
 30
0.0
 11
1.2333163374329739
 21
12.0552064046364933
 31
0.0
  0
LINE
  5
12C
100
AcDbEntity
100
AcDbLine
  8
ModuleHoles
 62
256
370
-1
  6
ByLayer
 10
1.2977624844632407
 20
11.9587559296094099
 30
0.0
 11
1.2811809317683394
 21
11.8753948349055456
 31
0.0
  0
LINE
  5
12D
100
AcDbEntity
100
AcDbLine
  8
ModuleHoles
 62
256
370
-1
  6
ByLayer
 10
1.2333163374329739
 20
12.0552064046364933
 30
0.0
 11
1.1499552427291109
 21
12.071787957331404
 31
0.0
  0
LINE
  5
12E
100
AcDbEntity
100
AcDbLine
  8
ModuleHoles
 62
256
370
-1
  6
ByLayer
 10
2.0902094075367623
 20
11.2857020332841032
 30
0.0
 11
2.0552064046364942
 21
11.2333163374329743
 31
0.0
  0
LINE
  5
12F
100
AcDbEntity
100
AcDbLine
  8
ModuleHoles
 62
256
370
-1
  6
ByLayer
 10
1.9937589325096707
 20
11.350148180314374
 30
0.0
 11
1.9587559296094099
 21
11.2977624844632416
 31
0.0
  0
LINE
  5
130
100
AcDbEntity
100
AcDbLine
  8
ModuleHoles
 62
256
370
-1
  6
ByLayer
 10
2.0552064046364942
 20
11.2333163374329743
 30
0.0
 11
2.0717879573314022
 21
11.1499552427291135
 31
0.0
  0
LINE
  5
131
100
AcDbEntity
100
AcDbLine
  8
ModuleHoles
 62
256
370
-1
  6
ByLayer
 10
1.9587559296094099
 20
11.2977624844632416
 30
0.0
 11
1.8753948349055451
 21
11.2811809317683398
 31
0.0
  0
LINE
  5
132
100
AcDbEntity
100
AcDbLine
  8
ModuleHoles
 62
256
370
-1
  6
ByLayer
 10
3.0448984726781307
 20
10.9147519268299806
 30
0.0
 11
3.0326070526172844
 21
10.8529587853437999
 31
0.0
  0
LINE
  5
133
100
AcDbEntity
100
AcDbLine
  8
ModuleHoles
 62
256
370
-1
  6
ByLayer
 10
2.9311273801513611
 20
10.9373824041838503
 30
0.0
 11
2.9188359600905223
 21
10.8755892626976696
 31
0.0
  0
LINE
  5
134
100
AcDbEntity
100
AcDbLine
  8
ModuleHoles
 62
256
370
-1
  6
ByLayer
 10
3.0326070526172844
 20
10.8529587853437999
 30
0.0
 11
3.0798273196163519
 21
10.7822886616383968
 31
0.0
  0
LINE
  5
135
100
AcDbEntity
100
AcDbLine
  8
ModuleHoles
 62
256
370
-1
  6
ByLayer
 10
2.9188359600905223
 20
10.8755892626976696
 30
0.0
 11
2.8481658363851143
 21
10.8283689956986056
 31
0.0
  0
LINE
  5
136
100
AcDbEntity
100
AcDbLine
  8
ModuleHoles
 62
256
370
-1
  6
ByLayer
 10
4.068872619848638
 20
10.9373824041838503
 30
0.0
 11
4.0811640399094768
 21
10.8755892626976678
 31
0.0
  0
LINE
  5
137
100
AcDbEntity
100
AcDbLine
  8
ModuleHoles
 62
256
370
-1
  6
ByLayer
 10
3.9551015273218684
 20
10.9147519268299789
 30
0.0
 11
3.9673929473827143
 21
10.8529587853437999
 31
0.0
  0
LINE
  5
138
100
AcDbEntity
100
AcDbLine
  8
ModuleHoles
 62
256
370
-1
  6
ByLayer
 10
4.0811640399094768
 20
10.8755892626976678
 30
0.0
 11
4.1518341636148826
 21
10.8283689956986056
 31
0.0
  0
LINE
  5
139
100
AcDbEntity
100
AcDbLine
  8
ModuleHoles
 62
256
370
-1
  6
ByLayer
 10
3.9673929473827143
 20
10.8529587853437999
 30
0.0
 11
3.9201726803836445
 21
10.7822886616383968
 31
0.0
  0
LINE
  5
13A
100
AcDbEntity
100
AcDbLine
  8
ModuleHoles
 62
256
370
-1
  6
ByLayer
 10
5.0062410674903299
 20
11.3501481803143758
 30
0.0
 11
5.0412440703905919
 21
11.2977624844632416
 31
0.0
  0
LINE
  5
13B
100
AcDbEntity
100
AcDbLine
  8
ModuleHoles
 62
256
370
-1
  6
ByLayer
 10
4.9097905924632395
 20
11.2857020332841049
 30
0.0
 11
4.9447935953635067
 21
11.2333163374329743
 31
0.0
  0
LINE
  5
13C
100
AcDbEntity
100
AcDbLine
  8
ModuleHoles
 62
256
370
-1
  6
ByLayer
 10
5.0412440703905919
 20
11.2977624844632416
 30
0.0
 11
5.1246051650944535
 21
11.2811809317683398
 31
0.0
  0
LINE
  5
13D
100
AcDbEntity
100
AcDbLine
  8
ModuleHoles
 62
256
370
-1
  6
ByLayer
 10
4.9447935953635067
 20
11.2333163374329743
 30
0.0
 11
4.9282120426685978
 21
11.1499552427291118
 31
0.0
  0
LINE
  5
13E
100
AcDbEntity
100
AcDbLine
  8
ModuleHoles
 62
256
370
-1
  6
ByLayer
 10
5.7142979667158951
 20
12.0902094075367614
 30
0.0
 11
5.7666836625670257
 21
12.0552064046364933
 31
0.0
  0
LINE
  5
13F
100
AcDbEntity
100
AcDbLine
  8
ModuleHoles
 62
256
370
-1
  6
ByLayer
 10
5.6498518196856251
 20
11.993758932509671
 30
0.0
 11
5.7022375155367593
 21
11.9587559296094099
 31
0.0
  0
LINE
  5
140
100
AcDbEntity
100
AcDbLine
  8
ModuleHoles
 62
256
370
-1
  6
ByLayer
 10
5.7666836625670257
 20
12.0552064046364933
 30
0.0
 11
5.8500447572708874
 21
12.0717879573314022
 31
0.0
  0
LINE
  5
141
100
AcDbEntity
100
AcDbLine
  8
ModuleHoles
 62
256
370
-1
  6
ByLayer
 10
5.7022375155367593
 20
11.9587559296094099
 30
0.0
 11
5.7188190682316611
 21
11.8753948349055456
 31
0.0
  0
LINE
  5
142
100
AcDbEntity
100
AcDbLine
  8
ModuleHoles
 62
256
370
-1
  6
ByLayer
 10
6.0852480731700194
 20
13.0448984726781312
 30
0.0
 11
6.1470412146562001
 21
13.0326070526172852
 31
0.0
  0
LINE
  5
143
100
AcDbEntity
100
AcDbLine
  8
ModuleHoles
 62
256
370
-1
  6
ByLayer
 10
6.0626175958161497
 20
12.9311273801513611
 30
0.0
 11
6.1244107373023313
 21
12.9188359600905223
 31
0.0
  0
LINE
  5
144
100
AcDbEntity
100
AcDbLine
  8
ModuleHoles
 62
256
370
-1
  6
ByLayer
 10
6.1470412146562001
 20
13.0326070526172852
 30
0.0
 11
6.2177113383616032
 21
13.079827319616351
 31
0.0
  0
LINE
  5
145
100
AcDbEntity
100
AcDbLine
  8
ModuleHoles
 62
256
370
-1
  6
ByLayer
 10
6.1244107373023313
 20
12.9188359600905223
 30
0.0
 11
6.1716310043013944
 21
12.8481658363851139
 31
0.0
  0
LINE
  5
146
100
AcDbEntity
100
AcDbLine
  8
0
 62
256
370
-1
  6
ByLayer
 10
9.5000000000000018
 20
13.5000000000000018
 30
0.0
 11
11.4445436482630072
 21
15.4445436482630072
 31
0.0
  0
LINE
  5
147
100
AcDbEntity
100
AcDbLine
  8
ModuleHoles
 62
256
370
-1
  6
ByLayer
 10
11.4036156645025297
 20
15.3074491422611576
 30
0.0
 11
11.4920323345277033
 21
15.3958658122863312
 31
0.0
  0
LINE
  5
148
100
AcDbEntity
100
AcDbLine
  8
ModuleHoles
 62
256
370
-1
  6
ByLayer
 10
11.3074491422611576
 20
15.4036156645025297
 30
0.0
 11
11.3958658122863312
 21
15.4920323345277033
 31
0.0
  0
ARC
  5
149
100
AcDbEntity
  8
Module
 62
7
370
70
  6
CONTINUOUS
100
AcDbCircle
 10
9.5000000000000018
 20
13.5
 30
0.0
 40
2.75
100
AcDbArc
 50
299.4003510102127166
 51
330.5996489897873403
  0
ARC
  5
14A
100
AcDbEntity
  8
Module
 62
7
370
70
  6
CONTINUOUS
100
AcDbCircle
 10
9.5000000000000018
 20
13.5
 30
0.0
 40
2.625
100
AcDbArc
 50
300.9497230788593356
 51
329.0502769211407212
  0
LINE
  5
14B
100
AcDbEntity
100
AcDbLine
  8
Module
 62
256
370
-1
  6
ByLayer
 10
7.1041702898578114
 20
14.8499999999999996
 30
0.0
 11
7.2487503470294561
 21
14.8499999999999996
 31
0.0
  0
ARC
  5
14C
100
AcDbEntity
  8
Module
 62
7
370
70
  6
CONTINUOUS
100
AcDbCircle
 10
9.5000000000000018
 20
13.5
 30
0.0
 40
2.625
100
AcDbArc
 50
120.9497230788593356
 51
149.0502769211406928
  0
ARC
  5
14D
100
AcDbEntity
  8
Module
 62
7
370
70
  6
CONTINUOUS
100
AcDbCircle
 10
9.5000000000000018
 20
13.5
 30
0.0
 40
2.75
100
AcDbArc
 50
119.4003510102127308
 51
150.5996489897873118
  0
LINE
  5
14E
100
AcDbEntity
100
AcDbLine
  8
Module
 62
256
370
-1
  6
ByLayer
 10
8.1500000000000021
 20
15.7512496529705466
 30
0.0
 11
8.1500000000000021
 21
15.8958297101421877
 31
0.0
  0
ARC
  5
14F
100
AcDbEntity
  8
Module
 62
7
370
70
  6
CONTINUOUS
100
AcDbCircle
 10
9.5000000000000018
 20
13.5
 30
0.0
 40
2.625
100
AcDbArc
 50
30.9497230788592859
 51
59.0502769211406715
  0
ARC
  5
150
100
AcDbEntity
  8
Module
 62
7
370
70
  6
CONTINUOUS
100
AcDbCircle
 10
9.5000000000000018
 20
13.5
 30
0.0
 40
2.75
100
AcDbArc
 50
29.4003510102126953
 51
60.5996489897872692
  0
LINE
  5
151
100
AcDbEntity
100
AcDbLine
  8
Module
 62
256
370
-1
  6
ByLayer
 10
10.8500000000000014
 20
15.7512496529705466
 30
0.0
 11
10.8500000000000014
 21
15.8958297101421877
 31
0.0
  0
ARC
  5
152
100
AcDbEntity
  8
Module
 62
7
370
70
  6
CONTINUOUS
100
AcDbCircle
 10
9.5000000000000018
 20
13.5
 30
0.0
 40
2.625
100
AcDbArc
 50
210.9497230788592788
 51
239.0502769211406644
  0
LINE
  5
153
100
AcDbEntity
100
AcDbLine
  8
Module
 62
256
370
-1
  6
ByLayer
 10
7.1041702898578123
 20
12.1500000000000004
 30
0.0
 11
7.2487503470294534
 21
12.1500000000000004
 31
0.0
  0
ARC
  5
154
100
AcDbEntity
  8
Module
 62
7
370
70
  6
CONTINUOUS
100
AcDbCircle
 10
9.5000000000000018
 20
13.5
 30
0.0
 40
2.75
100
AcDbArc
 50
209.4003510102126882
 51
240.5996489897872834
  0
LINE
  5
155
100
AcDbEntity
100
AcDbLine
  8
Module
 62
256
370
-1
  6
ByLayer
 10
11.7512496529705484
 20
14.8499999999999979
 30
0.0
 11
11.8958297101421913
 21
14.8499999999999979
 31
0.0
  0
LINE
  5
156
100
AcDbEntity
100
AcDbLine
  8
Module
 62
256
370
-1
  6
ByLayer
 10
11.8958297101421913
 20
12.1500000000000021
 30
0.0
 11
11.7512496529705484
 21
12.1500000000000021
 31
0.0
  0
LINE
  5
157
100
AcDbEntity
100
AcDbLine
  8
Module
 62
256
370
-1
  6
ByLayer
 10
10.8500000000000014
 20
11.2487503470294552
 30
0.0
 11
10.8500000000000014
 21
11.1041702898578123
 31
0.0
  0
LINE
  5
158
100
AcDbEntity
100
AcDbLine
  8
Module
 62
256
370
-1
  6
ByLayer
 10
8.1500000000000021
 20
11.1041702898578123
 30
0.0
 11
8.1500000000000021
 21
11.2487503470294552
 31
0.0
  0
LINE
  5
159
100
AcDbEntity
100
AcDbLine
  8
ModuleHoles
 62
256
370
-1
  6
ByLayer
 10
7.6925508577388459
 20
15.4036156645025297
 30
0.0
 11
7.6041341877136732
 21
15.4920323345277033
 31
0.0
  0
LINE
  5
15A
100
AcDbEntity
100
AcDbLine
  8
ModuleHoles
 62
256
370
-1
  6
ByLayer
 10
7.5963843354974738
 20
15.3074491422611576
 30
0.0
 11
7.5079676654723002
 21
15.3958658122863312
 31
0.0
  0
LINE
  5
15B
100
AcDbEntity
100
AcDbLine
  8
ModuleHoles
 62
256
370
-1
  6
ByLayer
 10
7.5963843354974738
 20
11.6925508577388459
 30
0.0
 11
7.5079676654722993
 21
11.6041341877136723
 31
0.0
  0
LINE
  5
15C
100
AcDbEntity
100
AcDbLine
  8
ModuleHoles
 62
256
370
-1
  6
ByLayer
 10
7.6925508577388459
 20
11.5963843354974738
 30
0.0
 11
7.6041341877136723
 21
11.5079676654723002
 31
0.0
  0
LINE
  5
15D
100
AcDbEntity
100
AcDbLine
  8
ModuleHoles
 62
256
370
-1
  6
ByLayer
 10
11.3074491422611558
 20
11.5963843354974738
 30
0.0
 11
11.3958658122863312
 21
11.5079676654723002
 31
0.0
  0
LINE
  5
15E
100
AcDbEntity
100
AcDbLine
  8
ModuleHoles
 62
256
370
-1
  6
ByLayer
 10
11.4036156645025297
 20
11.6925508577388459
 30
0.0
 11
11.4920323345277033
 21
11.6041341877136723
 31
0.0
  0
ELLIPSE
  5
15F
100
AcDbEntity
100
AcDbEllipse
  8
ModuleHoles
 62
256
370
-1
  6
ByLayer
 10
1.5
 20
7.2040595211088831
 30
0.0
 11
0.1181000000000001
 21
0.0
 31
0.0
 40
0.2161601761853336
 41
0.0
 42
6.2831853071795862
  0
ELLIPSE
  5
160
100
AcDbEntity
100
AcDbEllipse
  8
ModuleHoles
 62
256
370
-1
  6
ByLayer
 10
1.5
 20
6.7934414338319993
 30
0.0
 11
0.1181000000000001
 21
0.0
 31
0.0
 40
0.5734323928902552
 41
0.0
 42
6.2831853071795862
  0
ELLIPSE
  5
161
100
AcDbEntity
100
AcDbEllipse
  8
ModuleHoles
 62
256
370
-1
  6
ByLayer
 10
1.5
 20
6.0347181408039061
 30
0.0
 11
0.1181000000000001
 21
0.0
 31
0.0
 40
0.8434047259552084
 41
0.0
 42
6.2831853071795862
  0
ELLIPSE
  5
162
100
AcDbEntity
100
AcDbEllipse
  8
ModuleHoles
 62
256
370
-1
  6
ByLayer
 10
1.5
 20
5.0433983855443527
 30
0.0
 11
0.1181000000000001
 21
0.0
 31
0.0
 40
0.9849763349763757
 41
0.0
 42
6.2831853071795862
  0
ELLIPSE
  5
163
100
AcDbEntity
100
AcDbEllipse
  8
ModuleHoles
 62
256
370
-1
  6
ByLayer
 10
1.5
 20
3.9704016144556475
 30
0.0
 11
0.1181000000000001
 21
0.0
 31
0.0
 40
0.976594225830109
 41
0.0
 42
6.2831853071795862
  0
ELLIPSE
  5
164
100
AcDbEntity
100
AcDbEllipse
  8
ModuleHoles
 62
256
370
-1
  6
ByLayer
 10
1.5
 20
2.9790818591960941
 30
0.0
 11
0.1181000000000001
 21
0.0
 31
0.0
 40
0.8195344986498871
 41
0.0
 42
6.2831853071795862
  0
ELLIPSE
  5
165
100
AcDbEntity
100
AcDbEllipse
  8
ModuleHoles
 62
256
370
-1
  6
ByLayer
 10
1.5
 20
2.220358566168001
 30
0.0
 11
0.1181000000000001
 21
0.0
 31
0.0
 40
0.5377080731489542
 41
0.0
 42
6.2831853071795862
  0
ELLIPSE
  5
166
100
AcDbEntity
100
AcDbEllipse
  8
ModuleHoles
 62
256
370
-1
  6
ByLayer
 10
1.5
 20
1.8097404788911162
 30
0.0
 11
0.1181000000000001
 21
0.0
 31
0.0
 40
0.2161601761853392
 41
0.0
 42
6.2831853071795862
  0
ELLIPSE
  5
167
100
AcDbEntity
100
AcDbEllipse
  8
ModuleHoles
 62
256
370
-1
  6
ByLayer
 10
18.5
 20
7.2040595211088831
 30
0.0
 11
0.1181000000000001
 21
0.0
 31
0.0
 40
0.2161601761853336
 41
0.0
 42
6.2831853071795862
  0
ELLIPSE
  5
168
100
AcDbEntity
100
AcDbEllipse
  8
ModuleHoles
 62
256
370
-1
  6
ByLayer
 10
18.5
 20
6.7934414338319993
 30
0.0
 11
0.1181000000000001
 21
0.0
 31
0.0
 40
0.5734323928902552
 41
0.0
 42
6.2831853071795862
  0
ELLIPSE
  5
169
100
AcDbEntity
100
AcDbEllipse
  8
ModuleHoles
 62
256
370
-1
  6
ByLayer
 10
18.5
 20
6.0347181408039061
 30
0.0
 11
0.1181000000000001
 21
0.0
 31
0.0
 40
0.8434047259552084
 41
0.0
 42
6.2831853071795862
  0
ELLIPSE
  5
16A
100
AcDbEntity
100
AcDbEllipse
  8
ModuleHoles
 62
256
370
-1
  6
ByLayer
 10
18.5
 20
5.0433983855443527
 30
0.0
 11
0.1181000000000001
 21
0.0
 31
0.0
 40
0.9849763349763757
 41
0.0
 42
6.2831853071795862
  0
ELLIPSE
  5
16B
100
AcDbEntity
100
AcDbEllipse
  8
ModuleHoles
 62
256
370
-1
  6
ByLayer
 10
18.5
 20
3.9704016144556475
 30
0.0
 11
0.1181000000000001
 21
0.0
 31
0.0
 40
0.976594225830109
 41
0.0
 42
6.2831853071795862
  0
ELLIPSE
  5
16C
100
AcDbEntity
100
AcDbEllipse
  8
ModuleHoles
 62
256
370
-1
  6
ByLayer
 10
18.5
 20
2.9790818591960941
 30
0.0
 11
0.1181000000000001
 21
0.0
 31
0.0
 40
0.8195344986498871
 41
0.0
 42
6.2831853071795862
  0
ELLIPSE
  5
16D
100
AcDbEntity
100
AcDbEllipse
  8
ModuleHoles
 62
256
370
-1
  6
ByLayer
 10
18.5
 20
2.220358566168001
 30
0.0
 11
0.1181000000000001
 21
0.0
 31
0.0
 40
0.5377080731489542
 41
0.0
 42
6.2831853071795862
  0
ELLIPSE
  5
16E
100
AcDbEntity
100
AcDbEllipse
  8
ModuleHoles
 62
256
370
-1
  6
ByLayer
 10
18.5
 20
1.8097404788911162
 30
0.0
 11
0.1181000000000001
 21
0.0
 31
0.0
 40
0.2161601761853392
 41
0.0
 42
6.2831853071795862
  0
LINE
  5
16F
100
AcDbEntity
100
AcDbLine
  8
0
 62
256
370
-1
  6
ByLayer
 10
14.5000000000000018
 20
10.5000000000000018
 30
0.0
 11
14.5000000000000018
 21
20.5
 31
0.0
  0
CIRCLE
  5
170
100
AcDbEntity
100
AcDbCircle
  8
Coupler
 62
256
370
-1
  6
ByLayer
 10
14.5000000000000018
 20
10.5000000000000018
 30
0.0
 40
2.625
  0
CIRCLE
  5
171
100
AcDbEntity
100
AcDbCircle
  8
Coupler
 62
256
370
-1
  6
ByLayer
 10
14.5000000000000018
 20
10.5000000000000018
 30
0.0
 40
2.5
  0
LINE
  5
172
100
AcDbEntity
100
AcDbLine
  8
Coupler
 62
256
370
-1
  6
ByLayer
 10
18.0
 20
13.125
 30
0.0
 11
20.0
 21
13.125
 31
0.0
  0
LINE
  5
173
100
AcDbEntity
100
AcDbLine
  8
Coupler
 62
256
370
70
  6
ByLayer
 10
18.0
 20
13.125
 30
0.0
 11
18.0
 21
7.875
 31
0.0
  0
LINE
  5
174
100
AcDbEntity
100
AcDbLine
  8
Coupler
 62
256
370
70
  6
ByLayer
 10
20.0
 20
7.875
 30
0.0
 11
20.0
 21
13.125
 31
0.0
  0
LINE
  5
175
100
AcDbEntity
100
AcDbLine
  8
Coupler
 62
256
370
-1
  6
ByLayer
 10
18.0
 20
7.875
 30
0.0
 11
20.0
 21
7.875
 31
0.0
  0
LINE
  5
176
100
AcDbEntity
100
AcDbLine
  8
Coupler
 62
256
370
-1
  6
DASHED2
 10
18.0
 20
13.0
 30
0.0
 11
20.0
 21
13.0
 31
0.0
  0
LINE
  5
177
100
AcDbEntity
100
AcDbLine
  8
Coupler
 62
256
370
-1
  6
DASHED2
 10
18.0
 20
8.0
 30
0.0
 11
20.0
 21
8.0
 31
0.0
  0
LINE
  5
178
100
AcDbEntity
100
AcDbLine
  8
Coupler
 62
256
370
-1
  6
ByLayer
 10
16.999519753872729
 20
10.4510000000000005
 30
0.0
 11
17.124542626820908
 21
10.4510000000000005
 31
0.0
  0
LINE
  5
179
100
AcDbEntity
100
AcDbLine
  8
Coupler
 62
256
370
-1
  6
ByLayer
 10
16.999519753872729
 20
10.5489999999999995
 30
0.0
 11
17.124542626820908
 21
10.5489999999999995
 31
0.0
  0
LINE
  5
17A
100
AcDbEntity
100
AcDbLine
  8
Coupler
 62
256
370
-1
  6
ByLayer
 10
16.8280066298965565
 20
11.4112547015832977
 30
0.0
 11
16.943512703309132
 21
11.4590988837272718
 31
0.0
  0
LINE
  5
17B
100
AcDbEntity
100
AcDbLine
  8
Coupler
 62
256
370
-1
  6
ByLayer
 10
16.7905036535247767
 20
11.5017948957694109
 30
0.0
 11
16.9060097269373593
 21
11.5496390779133584
 31
0.0
  0
LINE
  5
17C
100
AcDbEntity
100
AcDbLine
  8
Coupler
 62
256
370
-1
  6
ByLayer
 10
16.3020755999512872
 20
12.2327791353949884
 30
0.0
 11
16.3904801212163527
 21
12.3211836566600841
 31
0.0
  0
LINE
  5
17D
100
AcDbEntity
100
AcDbLine
  8
Coupler
 62
256
370
-1
  6
ByLayer
 10
16.2327791353949991
 20
12.3020755999512765
 30
0.0
 11
16.3211836566600859
 21
12.3904801212163527
 31
0.0
  0
LINE
  5
17E
100
AcDbEntity
100
AcDbLine
  8
Coupler
 62
256
370
-1
  6
ByLayer
 10
15.5017948957694269
 20
12.7905036535247696
 30
0.0
 11
15.5496390779133602
 21
12.9060097269373593
 31
0.0
  0
LINE
  5
17F
100
AcDbEntity
100
AcDbLine
  8
Coupler
 62
256
370
-1
  6
ByLayer
 10
15.4112547015833119
 20
12.8280066298965512
 30
0.0
 11
15.4590988837272718
 21
12.9435127033091302
 31
0.0
  0
LINE
  5
180
100
AcDbEntity
100
AcDbLine
  8
Coupler
 62
256
370
-1
  6
ByLayer
 10
14.5490000000000137
 20
12.999519753872729
 30
0.0
 11
14.5489999999999924
 21
13.124542626820908
 31
0.0
  0
LINE
  5
181
100
AcDbEntity
100
AcDbLine
  8
Coupler
 62
256
370
-1
  6
ByLayer
 10
14.4510000000000058
 20
12.999519753872729
 30
0.0
 11
14.4510000000000129
 21
13.124542626820908
 31
0.0
  0
LINE
  5
182
100
AcDbEntity
100
AcDbLine
  8
Coupler
 62
256
370
-1
  6
ByLayer
 10
13.5887452984167059
 20
12.8280066298965565
 30
0.0
 11
13.5409011162727317
 21
12.9435127033091302
 31
0.0
  0
LINE
  5
183
100
AcDbEntity
100
AcDbLine
  8
Coupler
 62
256
370
-1
  6
ByLayer
 10
13.4982051042305926
 20
12.7905036535247749
 30
0.0
 11
13.4503609220866451
 21
12.9060097269373593
 31
0.0
  0
LINE
  5
184
100
AcDbEntity
100
AcDbLine
  8
Coupler
 62
256
370
-1
  6
ByLayer
 10
12.7672208646050169
 20
12.302075599951289
 30
0.0
 11
12.6788163433399212
 21
12.3904801212163544
 31
0.0
  0
LINE
  5
185
100
AcDbEntity
100
AcDbLine
  8
Coupler
 62
256
370
-1
  6
ByLayer
 10
12.6979244000487288
 20
12.2327791353949991
 30
0.0
 11
12.6095198787836527
 21
12.3211836566600859
 31
0.0
  0
LINE
  5
186
100
AcDbEntity
100
AcDbLine
  8
Coupler
 62
256
370
-1
  6
ByLayer
 10
12.209496346475234
 20
11.5017948957694269
 30
0.0
 11
12.0939902730626443
 21
11.5496390779133602
 31
0.0
  0
LINE
  5
187
100
AcDbEntity
100
AcDbLine
  8
Coupler
 62
256
370
-1
  6
ByLayer
 10
12.1719933701034524
 20
11.4112547015833101
 30
0.0
 11
12.0564872966908734
 21
11.4590988837272718
 31
0.0
  0
LINE
  5
188
100
AcDbEntity
100
AcDbLine
  8
Coupler
 62
256
370
-1
  6
ByLayer
 10
12.0004802461272746
 20
10.5490000000000137
 30
0.0
 11
11.8754573731790956
 21
10.5489999999999924
 31
0.0
  0
LINE
  5
189
100
AcDbEntity
100
AcDbLine
  8
Coupler
 62
256
370
-1
  6
ByLayer
 10
12.0004802461272746
 20
10.4510000000000058
 30
0.0
 11
11.8754573731790956
 21
10.4510000000000129
 31
0.0
  0
LINE
  5
18A
100
AcDbEntity
100
AcDbLine
  8
Coupler
 62
256
370
-1
  6
ByLayer
 10
12.1719933701034471
 20
9.5887452984167059
 30
0.0
 11
12.0564872966908734
 21
9.5409011162727317
 31
0.0
  0
LINE
  5
18B
100
AcDbEntity
100
AcDbLine
  8
Coupler
 62
256
370
-1
  6
ByLayer
 10
12.2094963464752286
 20
9.4982051042305926
 30
0.0
 11
12.0939902730626443
 21
9.4503609220866469
 31
0.0
  0
LINE
  5
18C
100
AcDbEntity
100
AcDbLine
  8
Coupler
 62
256
370
-1
  6
ByLayer
 10
12.6979244000487181
 20
8.7672208646050152
 30
0.0
 11
12.6095198787836509
 21
8.6788163433399177
 31
0.0
  0
LINE
  5
18D
100
AcDbEntity
100
AcDbLine
  8
Coupler
 62
256
370
-1
  6
ByLayer
 10
12.7672208646050045
 20
8.6979244000487288
 30
0.0
 11
12.6788163433399177
 21
8.6095198787836527
 31
0.0
  0
LINE
  5
18E
100
AcDbEntity
100
AcDbLine
  8
Coupler
 62
256
370
-1
  6
ByLayer
 10
13.4982051042305766
 20
8.209496346475234
 30
0.0
 11
13.4503609220866434
 21
8.0939902730626443
 31
0.0
  0
LINE
  5
18F
100
AcDbEntity
100
AcDbLine
  8
Coupler
 62
256
370
-1
  6
ByLayer
 10
13.5887452984166899
 20
8.1719933701034524
 30
0.0
 11
13.54090111627273
 21
8.0564872966908734
 31
0.0
  0
LINE
  5
190
100
AcDbEntity
100
AcDbLine
  8
Coupler
 62
256
370
-1
  6
ByLayer
 10
14.4509999999999881
 20
8.0004802461272746
 30
0.0
 11
14.4510000000000112
 21
7.8754573731790956
 31
0.0
  0
LINE
  5
191
100
AcDbEntity
100
AcDbLine
  8
Coupler
 62
256
370
-1
  6
ByLayer
 10
14.5489999999999977
 20
8.0004802461272746
 30
0.0
 11
14.5489999999999906
 21
7.8754573731790956
 31
0.0
  0
LINE
  5
192
100
AcDbEntity
100
AcDbLine
  8
Coupler
 62
256
370
-1
  6
ByLayer
 10
15.4112547015832977
 20
8.1719933701034471
 30
0.0
 11
15.4590988837272718
 21
8.0564872966908734
 31
0.0
  0
LINE
  5
193
100
AcDbEntity
100
AcDbLine
  8
Coupler
 62
256
370
-1
  6
ByLayer
 10
15.5017948957694109
 20
8.2094963464752286
 30
0.0
 11
15.5496390779133584
 21
8.0939902730626443
 31
0.0
  0
LINE
  5
194
100
AcDbEntity
100
AcDbLine
  8
Coupler
 62
256
370
-1
  6
ByLayer
 10
16.2327791353949848
 20
8.6979244000487146
 30
0.0
 11
16.3211836566600823
 21
8.6095198787836491
 31
0.0
  0
LINE
  5
195
100
AcDbEntity
100
AcDbLine
  8
Coupler
 62
256
370
-1
  6
ByLayer
 10
16.3020755999512765
 20
8.7672208646050045
 30
0.0
 11
16.3904801212163527
 21
8.6788163433399177
 31
0.0
  0
LINE
  5
196
100
AcDbEntity
100
AcDbLine
  8
Coupler
 62
256
370
-1
  6
ByLayer
 10
16.7905036535247696
 20
9.4982051042305766
 30
0.0
 11
16.9060097269373593
 21
9.4503609220866416
 31
0.0
  0
LINE
  5
197
100
AcDbEntity
100
AcDbLine
  8
Coupler
 62
256
370
-1
  6
ByLayer
 10
16.8280066298965494
 20
9.5887452984166899
 30
0.0
 11
16.943512703309132
 21
9.54090111627273
 31
0.0
  0
LINE
  5
198
100
AcDbEntity
100
AcDbLine
  8
0
 62
256
370
-1
  6
ByLayer
 10
18.5
 20
13.125
 30
0.0
 11
18.5
 21
7.875
 31
0.0
  0
LINE
  5
199
100
AcDbEntity
100
AcDbLine
  8
0
 62
256
370
-1
  6
ByLayer
 10
19.5
 20
7.875
 30
0.0
 11
19.5
 21
13.125
 31
0.0
  0
LINE
  5
19A
100
AcDbEntity
100
AcDbLine
  8
0
 62
256
370
-1
  6
ByLayer
 10
18.5489999999999995
 20
13.125
 30
0.0
 11
18.5489999999999995
 21
7.875
 31
0.0
  0
LINE
  5
19B
100
AcDbEntity
100
AcDbLine
  8
0
 62
256
370
-1
  6
ByLayer
 10
14.5000000000000018
 20
10.5
 30
0.0
 11
16.9251837728421322
 21
11.5045440099583605
 31
0.0
  0
LINE
  5
19C
100
AcDbEntity
100
AcDbLine
  8
0
 62
256
370
-1
  6
ByLayer
 10
14.5000000000000036
 20
10.5000000000000018
 30
0.0
 11
16.3561553006146916
 21
12.356155300614688
 31
0.0
  0
LINE
  5
19D
100
AcDbEntity
100
AcDbLine
  8
0
 62
256
370
-1
  6
ByLayer
 10
14.5000000000000036
 20
10.5000000000000036
 30
0.0
 11
15.5045440099583658
 21
12.9251837728421304
 31
0.0
  0
LINE
  5
19E
100
AcDbEntity
100
AcDbLine
  8
0
 62
256
370
-1
  6
ByLayer
 10
14.5000000000000018
 20
10.5000000000000018
 30
0.0
 11
16.9251837728421286
 21
9.4954559900416413
 31
0.0
  0
LINE
  5
19F
100
AcDbEntity
100
AcDbLine
  8
0
 62
256
370
-1
  6
ByLayer
 10
14.5000000000000018
 20
10.5000000000000018
 30
0.0
 11
16.356155300614688
 21
8.6438446993853137
 31
0.0
  0
LINE
  5
1A0
100
AcDbEntity
100
AcDbLine
  8
0
 62
256
370
-1
  6
ByLayer
 10
14.5000000000000018
 20
10.5000000000000018
 30
0.0
 11
15.5045440099583605
 21
8.0748162271578749
 31
0.0
  0
LINE
  5
1A1
100
AcDbEntity
100
AcDbLine
  8
0
 62
256
370
-1
  6
ByLayer
 10
15.4590988837272736
 20
12.9435127033091337
 30
0.0
 11
18.5
 21
12.9435127033091337
 31
0.0
  0
LINE
  5
1A2
100
AcDbEntity
100
AcDbLine
  8
0
 62
256
370
-1
  6
ByLayer
 10
15.549639077913362
 20
12.9060097269373628
 30
0.0
 11
18.5
 21
12.9060097269373628
 31
0.0
  0
LINE
  5
1A3
100
AcDbEntity
100
AcDbLine
  8
0
 62
256
370
-1
  6
ByLayer
 10
16.3211836566600894
 20
12.3904801212163544
 30
0.0
 11
18.5
 21
12.3904801212163544
 31
0.0
  0
LINE
  5
1A4
100
AcDbEntity
100
AcDbLine
  8
0
 62
256
370
-1
  6
ByLayer
 10
16.3904801212163562
 20
12.3211836566600876
 30
0.0
 11
18.5
 21
12.3211836566600876
 31
0.0
  0
LINE
  5
1A5
100
AcDbEntity
100
AcDbLine
  8
0
 62
256
370
-1
  6
ByLayer
 10
16.9060097269373628
 20
11.5496390779133602
 30
0.0
 11
18.5
 21
11.5496390779133602
 31
0.0
  0
LINE
  5
1A6
100
AcDbEntity
100
AcDbLine
  8
0
 62
256
370
-1
  6
ByLayer
 10
16.9435127033091355
 20
11.4590988837272718
 30
0.0
 11
18.5
 21
11.4590988837272718
 31
0.0
  0
LINE
  5
1A7
100
AcDbEntity
100
AcDbLine
  8
0
 62
256
370
-1
  6
ByLayer
 10
16.943512703309132
 20
9.54090111627273
 30
0.0
 11
18.5
 21
9.54090111627273
 31
0.0
  0
LINE
  5
1A8
100
AcDbEntity
100
AcDbLine
  8
0
 62
256
370
-1
  6
ByLayer
 10
16.9060097269373628
 20
9.4503609220866398
 30
0.0
 11
18.5
 21
9.4503609220866398
 31
0.0
  0
LINE
  5
1A9
100
AcDbEntity
100
AcDbLine
  8
0
 62
256
370
-1
  6
ByLayer
 10
16.3904801212163562
 20
8.6788163433399159
 30
0.0
 11
18.5
 21
8.6788163433399159
 31
0.0
  0
LINE
  5
1AA
100
AcDbEntity
100
AcDbLine
  8
0
 62
256
370
-1
  6
ByLayer
 10
16.3211836566600859
 20
8.6095198787836456
 30
0.0
 11
18.5
 21
8.6095198787836456
 31
0.0
  0
LINE
  5
1AB
100
AcDbEntity
100
AcDbLine
  8
0
 62
256
370
-1
  6
ByLayer
 10
15.5496390779133602
 20
8.0939902730626407
 30
0.0
 11
18.5
 21
8.0939902730626407
 31
0.0
  0
LINE
  5
1AC
100
AcDbEntity
100
AcDbLine
  8
0
 62
256
370
-1
  6
ByLayer
 10
15.4590988837272736
 20
8.0564872966908698
 30
0.0
 11
18.5
 21
8.0564872966908698
 31
0.0
  0
LINE
  5
1AD
100
AcDbEntity
100
AcDbLine
  8
0
 62
256
370
-1
  6
ByLayer
 10
15.5045440099583658
 20
12.9251837728421286
 30
0.0
 11
18.5489999999999995
 21
12.9251837728421286
 31
0.0
  0
LINE
  5
1AE
100
AcDbEntity
100
AcDbLine
  8
0
 62
256
370
-1
  6
ByLayer
 10
16.3561553006146916
 20
12.3561553006146863
 30
0.0
 11
18.5489999999999995
 21
12.3561553006146863
 31
0.0
  0
LINE
  5
1AF
100
AcDbEntity
100
AcDbLine
  8
0
 62
256
370
-1
  6
ByLayer
 10
16.9251837728421322
 20
11.5045440099583605
 30
0.0
 11
18.5489999999999995
 21
11.5045440099583605
 31
0.0
  0
LINE
  5
1B0
100
AcDbEntity
100
AcDbLine
  8
0
 62
256
370
-1
  6
ByLayer
 10
16.9251837728421286
 20
9.4954559900416413
 30
0.0
 11
18.5489999999999995
 21
9.4954559900416413
 31
0.0
  0
LINE
  5
1B1
100
AcDbEntity
100
AcDbLine
  8
0
 62
256
370
-1
  6
ByLayer
 10
16.356155300614688
 20
8.6438446993853137
 30
0.0
 11
18.5489999999999995
 21
8.6438446993853137
 31
0.0
  0
LINE
  5
1B2
100
AcDbEntity
100
AcDbLine
  8
0
 62
256
370
-1
  6
ByLayer
 10
15.5045440099583605
 20
8.0748162271578732
 30
0.0
 11
18.5489999999999995
 21
8.0748162271578732
 31
0.0
  0
ELLIPSE
  5
1B3
100
AcDbEntity
100
AcDbEllipse
  8
Coupler
 62
256
370
-1
  6
ByLayer
 10
18.5
 20
12.9251837728421286
 30
0.0
 11
0.0489999999999995
 21
0.0
 31
0.0
 40
0.3913070592809386
 41
0.0
 42
6.2831853071795862
  0
ELLIPSE
  5
1B4
100
AcDbEntity
100
AcDbEllipse
  8
Coupler
 62
256
370
-1
  6
ByLayer
 10
18.5
 20
12.3561553006146863
 30
0.0
 11
0.0489999999999995
 21
0.0
 31
0.0
 40
0.7137070194816119
 41
0.0
 42
6.2831853071795862
  0
ELLIPSE
  5
1B5
100
AcDbEntity
100
AcDbEllipse
  8
Coupler
 62
256
370
-1
  6
ByLayer
 10
18.5
 20
11.5045440099583605
 30
0.0
 11
0.0489999999999995
 21
0.0
 31
0.0
 40
0.9274515557365126
 41
0.0
 42
6.2831853071795862
  0
ELLIPSE
  5
1B6
100
AcDbEntity
100
AcDbEllipse
  8
Coupler
 62
256
370
-1
  6
ByLayer
 10
18.5
 20
9.4954559900416413
 30
0.0
 11
0.0489999999999995
 21
0.0
 31
0.0
 40
0.9203075092857546
 41
0.0
 42
6.2831853071795862
  0
ELLIPSE
  5
1B7
100
AcDbEntity
100
AcDbEllipse
  8
Coupler
 62
256
370
-1
  6
ByLayer
 10
18.5
 20
8.6438446993853137
 30
0.0
 11
0.0489999999999995
 21
0.0
 31
0.0
 40
0.700506542891195
 41
0.0
 42
6.2831853071795862
  0
ELLIPSE
  5
1B8
100
AcDbEntity
100
AcDbEllipse
  8
Coupler
 62
256
370
-1
  6
ByLayer
 10
18.5
 20
8.0748162271578732
 30
0.0
 11
0.0489999999999995
 21
0.0
 31
0.0
 40
0.3740598054490518
 41
0.0
 42
6.2831853071795862
  0
CIRCLE
  5
1B9
100
AcDbEntity
100
AcDbCircle
  8
Coupler
 62
256
370
-1
  6
ByLayer
 10
18.5
 20
10.5
 30
0.0
 40
0.049
  0
LINE
  5
1BA
100
AcDbEntity
100
AcDbLine
  8
Coupler
 62
256
370
-1
  6
DASHED2
 10
18.5489999999999995
 20
13.0
 30
0.0
 11
18.5489999999999995
 21
13.125
 31
0.0
  0
LINE
  5
1BB
100
AcDbEntity
100
AcDbLine
  8
Coupler
 62
256
370
-1
  6
DASHED2
 10
18.5489999999999995
 20
8.0
 30
0.0
 11
18.5489999999999995
 21
7.875
 31
0.0
  0
LINE
  5
1BC
100
AcDbEntity
100
AcDbLine
  8
Coupler
 62
256
370
-1
  6
DASHED2
 10
18.4510000000000005
 20
8.0
 30
0.0
 11
18.4510000000000005
 21
7.875
 31
0.0
  0
LINE
  5
1BD
100
AcDbEntity
100
AcDbLine
  8
Coupler
 62
256
370
-1
  6
DASHED2
 10
18.4510000000000005
 20
13.0
 30
0.0
 11
18.4510000000000005
 21
13.125
 31
0.0
  0
ELLIPSE
  5
1BE
100
AcDbEntity
100
AcDbEllipse
  8
Coupler
 62
256
370
-1
  6
ByLayer
 10
19.5
 20
12.9251837728421286
 30
0.0
 11
0.0489999999999995
 21
0.0
 31
0.0
 40
0.3913070592809386
 41
0.0
 42
6.2831853071795862
  0
ELLIPSE
  5
1BF
100
AcDbEntity
100
AcDbEllipse
  8
Coupler
 62
256
370
-1
  6
ByLayer
 10
19.5
 20
12.3561553006146863
 30
0.0
 11
0.0489999999999995
 21
0.0
 31
0.0
 40
0.7137070194816119
 41
0.0
 42
6.2831853071795862
  0
ELLIPSE
  5
1C0
100
AcDbEntity
100
AcDbEllipse
  8
Coupler
 62
256
370
-1
  6
ByLayer
 10
19.5
 20
11.5045440099583605
 30
0.0
 11
0.0489999999999995
 21
0.0
 31
0.0
 40
0.9274515557365126
 41
0.0
 42
6.2831853071795862
  0
ELLIPSE
  5
1C1
100
AcDbEntity
100
AcDbEllipse
  8
Coupler
 62
256
370
-1
  6
ByLayer
 10
19.5
 20
9.4954559900416413
 30
0.0
 11
0.0489999999999995
 21
0.0
 31
0.0
 40
0.9203075092857546
 41
0.0
 42
6.2831853071795862
  0
ELLIPSE
  5
1C2
100
AcDbEntity
100
AcDbEllipse
  8
Coupler
 62
256
370
-1
  6
ByLayer
 10
19.5
 20
8.6438446993853137
 30
0.0
 11
0.0489999999999995
 21
0.0
 31
0.0
 40
0.700506542891195
 41
0.0
 42
6.2831853071795862
  0
ELLIPSE
  5
1C3
100
AcDbEntity
100
AcDbEllipse
  8
Coupler
 62
256
370
-1
  6
ByLayer
 10
19.5
 20
8.0748162271578732
 30
0.0
 11
0.0489999999999995
 21
0.0
 31
0.0
 40
0.3740598054490518
 41
0.0
 42
6.2831853071795862
  0
CIRCLE
  5
1C4
100
AcDbEntity
100
AcDbCircle
  8
Coupler
 62
256
370
-1
  6
ByLayer
 10
19.5
 20
10.5
 30
0.0
 40
0.049
  0
LINE
  5
1C5
100
AcDbEntity
100
AcDbLine
  8
Coupler
 62
256
370
-1
  6
DASHED2
 10
19.5489999999999995
 20
13.0
 30
0.0
 11
19.5489999999999995
 21
13.125
 31
0.0
  0
LINE
  5
1C6
100
AcDbEntity
100
AcDbLine
  8
Coupler
 62
256
370
-1
  6
DASHED2
 10
19.5489999999999995
 20
8.0
 30
0.0
 11
19.5489999999999995
 21
7.875
 31
0.0
  0
LINE
  5
1C7
100
AcDbEntity
100
AcDbLine
  8
Coupler
 62
256
370
-1
  6
DASHED2
 10
19.4510000000000005
 20
8.0
 30
0.0
 11
19.4510000000000005
 21
7.875
 31
0.0
  0
LINE
  5
1C8
100
AcDbEntity
100
AcDbLine
  8
Coupler
 62
256
370
-1
  6
DASHED2
 10
19.4510000000000005
 20
13.0
 30
0.0
 11
19.4510000000000005
 21
13.125
 31
0.0
  0
LINE
  5
1C9
100
AcDbEntity
100
AcDbLine
  8
0
 62
256
370
-1
  6
ByLayer
 10
-1.9999999999999993
 20
4.5068999999999999
 30
0.0
 11
-3.944543648263005
 21
6.4514436482630053
 31
0.0
  0
LINE
  5
1CA
100
AcDbEntity
100
AcDbLine
  8
0
 62
256
370
-1
  6
ByLayer
 10
-3.944543648263009
 20
2.5623563517369901
 30
0.0
 11
-1.9999999999999993
 21
4.5068999999999999
 31
0.0
  0
LINE
  5
1CB
100
AcDbEntity
100
AcDbLine
  8
0
 62
256
370
-1
  6
ByLayer
 10
-3.9227138914049551
 20
6.3334473691635846
 30
0.0
 11
-4.0613492644098681
 21
6.4720827421684977
 31
0.0
  0
LINE
  5
1CC
100
AcDbEntity
100
AcDbLine
  8
0
 62
256
370
-1
  6
ByLayer
 10
-3.8265473691635843
 20
6.429613891404955
 30
0.0
 11
-3.9651827421684969
 21
6.568249264409868
 31
0.0
  0
LINE
  5
1CD
100
AcDbEntity
100
AcDbLine
  8
0
 62
256
370
-1
  6
ByLayer
 10
-4.0613492644098672
 20
2.5417172578315022
 30
0.0
 11
-3.9227138914049542
 21
2.6803526308364152
 31
0.0
  0
LINE
  5
1CE
100
AcDbEntity
100
AcDbLine
  8
0
 62
256
370
-1
  6
ByLayer
 10
-3.9651827421684969
 20
2.4455507355901318
 30
0.0
 11
-3.8265473691635843
 21
2.5841861085950444
 31
0.0
  0
LINE
  5
1CF
100
AcDbEntity
100
AcDbLine
  8
0
 62
256
370
-1
  6
ByLayer
 10
10.0679999999999996
 20
1.3
 30
0.0
 11
10.0679999999999996
 21
8.0
 31
0.0
  0
LINE
  5
1D0
100
AcDbEntity
100
AcDbLine
  8
0
 62
256
370
-1
  6
ByLayer
 10
-3.9445436482630054
 20
6.4514436482630053
 30
0.0
 11
10.0679999999999996
 21
6.4514436482630053
 31
0.0
  0
LINE
  5
1D1
100
AcDbEntity
100
AcDbLine
  8
0
 62
256
370
-1
  6
ByLayer
 10
-3.944543648263005
 20
2.5623563517369941
 30
0.0
 11
10.0679999999999996
 21
2.5623563517369941
 31
0.0
  0
LINE
  5
1D2
100
AcDbEntity
100
AcDbLine
  8
0
 62
256
370
-1
  6
ByLayer
 10
-3.8958658122863312
 20
6.4989323345277024
 30
0.0
 11
10.0
 21
6.4989323345277024
 31
0.0
  0
LINE
  5
1D3
100
AcDbEntity
100
AcDbLine
  8
0
 62
256
370
-1
  6
ByLayer
 10
-3.992032334527702
 20
6.4027658122863311
 30
0.0
 11
10.0
 21
6.4027658122863311
 31
0.0
  0
LINE
  5
1D4
100
AcDbEntity
100
AcDbLine
  8
0
 62
256
370
-1
  6
ByLayer
 10
-3.9920323345277016
 20
2.6110341877136678
 30
0.0
 11
10.0
 21
2.6110341877136678
 31
0.0
  0
LINE
  5
1D5
100
AcDbEntity
100
AcDbLine
  8
0
 62
256
370
-1
  6
ByLayer
 10
-3.8958658122863312
 20
2.5148676654722975
 30
0.0
 11
10.0
 21
2.5148676654722975
 31
0.0
  0
ELLIPSE
  5
1D6
100
AcDbEntity
100
AcDbEllipse
  8
Module
 62
256
370
-1
  6
ByLayer
 10
10.0
 20
6.4514436482630053
 30
0.0
 11
0.0679999999999996
 21
0.0
 31
0.0
 40
0.6983630333043722
 41
0.0
 42
6.2831853071795862
  0
ELLIPSE
  5
1D7
100
AcDbEntity
100
AcDbEllipse
  8
Module
 62
256
370
-1
  6
ByLayer
 10
10.0
 20
2.5623563517369941
 30
0.0
 11
0.0679999999999996
 21
0.0
 31
0.0
 40
0.6983630333043658
 41
0.0
 42
6.2831853071795862
  0
MTEXT
  5
1D8
100
AcDbEntity
100
AcDbMText
  8
Dimension
 62
256
370
-1
  6
ByLayer
 10
17.1999999999999993
 20
16.2000000000000028
 30
0.0
 40
0.3
 41
100.0
 71
1
 72
2
  1
PSAS\~LV2c\~Module\Pv1.2\~2006.10.31
  7
normallatin1
 50
0.0
 73
0
 44
1.0
  0
DIMENSION
  5
1D9
100
AcDbEntity
  8
Dimension
 62
256
370
-1
  6
ByLayer
100
AcDbDimension
 10
16.784648232278137
 20
12.7153517677218666
 30
0.0
 11
16.8914213562373128
 21
12.8914213562373092
 31
0.0
 70
1
 71
5
 72
1
 41
1.0
 42
0.0
  1

  3
Standard
100
AcDbAlignedDimension
 13
16.3211836566600894
 23
12.3904801212163544
 33
0.0
 14
16.3904801212163562
 24
12.3211836566600876
 34
0.0
  0
DIMENSION
  5
1DA
100
AcDbEntity
  8
Dimension
 62
256
370
-1
  6
ByLayer
100
AcDbDimension
 10
14.5000000000000018
 20
10.5000000000000018
 30
0.0
 11
13.5609431497432862
 21
11.3489241615043959
 31
0.0
 70
4
 71
5
 72
1
 41
1.0
 42
0.0
  1

  3
Standard
100
AcDbRadialDimension
 15
12.4038909592484075
 25
11.8624708764885369
 35
0.0
 40
0.0
  0
LEADER
  5
1DB
  8
Dimension
 62
256
370
-1
  6
ByLayer
100
AcDbEntity
100
AcDbLeader
  3
Standard
 71
1
 72
0
 73
3
 74
0
 75
0
 40
1.0
 41
10.0
 76
2
 10
12.4205262483446361
 20
9.1122720309165963
 10
12.8364209986757096
 20
9.3898176247332792
  0
LEADER
  5
1DC
  8
Dimension
 62
256
370
-1
  6
ByLayer
100
AcDbEntity
100
AcDbLeader
  3
Standard
 71
1
 72
0
 73
3
 74
0
 75
0
 40
1.0
 41
10.0
 76
2
 10
12.3165525607618704
 20
9.0428856324624274
 10
12.0046314980135627
 20
8.8347264370999152
  0
MTEXT
  5
1DD
100
AcDbEntity
100
AcDbMText
  8
Dimension
 62
256
370
-1
  6
ByLayer
 10
10.9999999999999982
 20
8.8000000000000025
 30
0.0
 40
0.2
 41
100.0
 71
1
 72
2
  1
0.125\S+.025\-.003
  7
normallatin1
 50
0.0
 73
1
 44
1.0
  0
CIRCLE
  5
1DE
100
AcDbEntity
100
AcDbCircle
  8
Dimension
 62
256
370
-1
  6
DASHED
 10
9.5
 20
13.5
 30
0.0
 40
2.75
  0
LINE
  5
1DF
100
AcDbEntity
100
AcDbLine
  8
0
 62
256
370
-1
  6
ByLayer
 10
6.7000000000000002
 20
10.5000000000000018
 30
0.0
 11
6.7000000000000011
 21
20.5
 31
0.0
  0
LINE
  5
1E0
100
AcDbEntity
100
AcDbLine
  8
0
 62
256
370
-1
  6
ByLayer
 10
4.0
 20
10.6000000000000014
 30
0.0
 11
4.0000000000000009
 21
20.6000000000000014
 31
0.0
  0
DIMENSION
  5
1E1
100
AcDbEntity
  8
Dimension
 62
256
370
-1
  6
ByLayer
100
AcDbDimension
 10
11.6019167388793143
 20
15.6980832611206864
 30
0.0
 11
11.7914213562373096
 21
15.7914213562373096
 31
0.0
 70
1
 71
5
 72
1
 41
1.0
 42
0.0
  1

  3
Standard
100
AcDbAlignedDimension
 13
11.4920323345277033
 23
15.3958658122863312
 33
0.0
 14
11.3958658122863312
 24
15.4920323345277033
 34
0.0
  0
LEADER
  5
1E2
  8
Dimension
 62
256
370
-1
  6
ByLayer
100
AcDbEntity
100
AcDbLeader
  3
Standard
 71
1
 72
0
 73
3
 74
0
 75
0
 40
1.0
 41
10.0
 76
2
 10
7.3534690911722693
 20
15.010969906201705
 10
7.8645478789883958
 20
14.6512151666298713
  0
LEADER
  5
1E3
  8
Dimension
 62
256
370
-1
  6
ByLayer
100
AcDbEntity
100
AcDbLeader
  3
Standard
 71
1
 72
0
 73
3
 74
0
 75
0
 40
1.0
 41
10.0
 76
2
 10
7.2512533336090446
 20
15.0829208541160718
 10
6.842390303356142
 20
15.3707246457735387
  0
LEADER
  5
1E4
  8
Dimension
 62
256
370
-1
  6
ByLayer
100
AcDbEntity
100
AcDbLeader
  3
Standard
 71
1
 72
0
 73
3
 74
0
 75
0
 40
1.0
 41
10.0
 76
2
 10
5.3561553006146871
 20
15.356155300614688
 10
4.9142135623730958
 20
14.9142135623730958
  0
LEADER
  5
1E5
  8
Dimension
 62
256
370
-1
  6
ByLayer
100
AcDbEntity
100
AcDbLeader
  3
Standard
 71
1
 72
0
 73
3
 74
0
 75
0
 40
1.0
 41
10.0
 76
2
 10
5.4445436482630063
 20
15.4445436482630072
 10
5.7980970388562802
 20
15.7980970388562802
  0
DIMENSION
  5
1E6
100
AcDbEntity
  8
Dimension
 62
256
370
-1
  6
ByLayer
100
AcDbDimension
 10
3.5
 20
13.5
 30
0.0
 11
2.6847360319557594
 21
14.5478553871640681
 31
0.0
 70
4
 71
5
 72
1
 41
1.0
 42
0.0
  1

  3
Standard
100
AcDbRadialDimension
 15
1.5943742047472058
 25
15.3053297007658067
 35
0.0
 40
0.0
  0
DIMENSION
  5
1E7
100
AcDbEntity
  8
Dimension
 62
256
370
-1
  6
ByLayer
100
AcDbDimension
 10
5.4008093090804783
 20
10.8678122182067707
 30
0.0
 11
5.1914987012636287
 21
10.9684932961476651
 31
0.0
 70
1
 71
5
 72
1
 41
1.0
 42
0.0
  1

  3
Standard
100
AcDbAlignedDimension
 13
4.9282120426685978
 23
11.1499552427291118
 33
0.0
 14
5.1246051650944553
 24
11.2811809317683398
 34
0.0
  0
DIMENSION
  5
1E8
100
AcDbEntity
  8
Dimension
 62
256
370
-1
  6
ByLayer
100
AcDbDimension
 10
5.5781644105211745
 20
10.285409925563874
 30
0.0
 11
5.5152756014307966
 21
10.483926921539517
 31
0.0
 70
1
 71
5
 72
1
 41
1.0
 42
0.0
  1

  3
Standard
100
AcDbAlignedDimension
 13
5.0412440703905919
 23
11.2977624844632416
 33
0.0
 14
4.9447935953635067
 24
11.2333163374329743
 34
0.0
  0
LINE
  5
1E9
100
AcDbEntity
100
AcDbLine
  8
0
 62
256
370
-1
  6
ByLayer
 10
4.9000000000000004
 20
10.8000000000000007
 30
0.0
 11
4.9000000000000004
 21
10.7000000000000011
 31
0.0
  0
LINE
  5
1EA
100
AcDbEntity
100
AcDbLine
  8
0
 62
256
370
-1
  6
ByLayer
 10
6.2000000000000002
 20
10.7000000000000011
 30
0.0
 11
6.2000000000000002
 21
10.8000000000000007
 31
0.0
  0
LINE
  5
1EB
100
AcDbEntity
100
AcDbLine
  8
Dimension
 62
256
370
-1
  6
ByLayer
 10
4.0
 20
10.75
 30
0.0
 11
4.9000000000000004
 21
10.75
 31
0.0
  0
MTEXT
  5
1EC
100
AcDbEntity
100
AcDbMText
  8
Dimension
 62
256
370
-1
  6
ByLayer
 10
5.802131332818897
 20
10.1000000000000014
 30
0.0
 40
0.2
 41
100.0
 71
1
 72
2
  1
Drill\~#32\PFor\~M3x0.5\PCountersink\~90%%d,Theoretical\~Depth\~0.118\P16\~places
  7
normallatin1
 50
0.0
 73
1
 44
1.0
  0
DIMENSION
  5
1ED
100
AcDbEntity
  8
Dimension
 62
256
370
-1
  6
ByLayer
100
AcDbDimension
 10
2.015625
 20
7.9000000000000004
 30
0.0
 11
1.515625
 21
8.0999999999999996
 31
0.0
 70
0
 71
5
 72
1
 41
1.0
 42
0.0
  1
1\S+.025^\~-.025;
  3
Standard
100
AcDbAlignedDimension
 13
1.015625
 23
7.2568999999999999
 33
0.0
 14
2.015625
 24
7.2568999999999999
 34
0.0
 50
0.0
100
AcDbRotatedDimension
  0
DIMENSION
  5
1EE
100
AcDbEntity
  8
Dimension
 62
256
370
-1
  6
ByLayer
100
AcDbDimension
 10
18.984375
 20
0.5999999999999996
 30
0.0
 11
10.0
 21
0.7999999999999996
 31
0.0
 70
0
 71
5
 72
1
 41
1.0
 42
0.0
  1
17.969\S+.01^\~-.01;
  3
Standard
100
AcDbAlignedDimension
 13
1.015625
 23
1.7568999999999999
 33
0.0
 14
18.984375
 24
1.7568999999999999
 34
0.0
 50
0.0
100
AcDbRotatedDimension
  0
LINE
  5
1EF
100
AcDbEntity
100
AcDbLine
  8
Dimension
 62
256
370
-1
  6
CENTER
 10
0.5000000000000004
 20
4.5068999999999999
 30
0.0
 11
5.0
 21
4.5068999999999999
 31
0.0
  0
LINE
  5
1F0
100
AcDbEntity
100
AcDbLine
  8
Dimension
 62
256
370
-1
  6
CENTER
 10
9.4000000000000004
 20
4.5068999999999999
 30
0.0
 11
19.5
 21
4.5068999999999999
 31
0.0
  0
DIMENSION
  5
1F1
100
AcDbEntity
  8
Dimension
 62
256
370
-1
  6
ByLayer
100
AcDbDimension
 10
9.0
 20
5.8568999999999996
 30
0.0
 11
8.8000000000000007
 21
4.5068999999999999
 31
0.0
 70
0
 71
5
 72
1
 41
1.0
 42
0.0
  1
2.7\S+.025^\~-.025;
  3
Standard
100
AcDbAlignedDimension
 13
10.0
 23
3.1568999999999994
 33
0.0
 14
10.0
 24
5.8568999999999996
 34
0.0
 50
90.0
100
AcDbRotatedDimension
  0
LINE
  5
1F2
100
AcDbEntity
100
AcDbLine
  8
Dimension
 62
256
370
-1
  6
CENTER2
 10
1.5
 20
1.5068999999999999
 30
0.0
 11
1.5
 21
7.5068999999999999
 31
0.0
  0
LINE
  5
1F3
100
AcDbEntity
100
AcDbLine
  8
Dimension
 62
256
370
-1
  6
CENTER2
 10
1.2000000000000006
 20
7.2040595211088831
 30
0.0
 11
1.8000000000000007
 21
7.2040595211088831
 31
0.0
  0
LINE
  5
1F4
100
AcDbEntity
100
AcDbLine
  8
Dimension
 62
256
370
-1
  6
CENTER2
 10
1.2000000000000006
 20
6.7934414338319993
 30
0.0
 11
1.8000000000000007
 21
6.7934414338319993
 31
0.0
  0
LINE
  5
1F5
100
AcDbEntity
100
AcDbLine
  8
Dimension
 62
256
370
-1
  6
CENTER2
 10
1.2000000000000004
 20
6.0347181408039061
 30
0.0
 11
1.8000000000000005
 21
6.0347181408039061
 31
0.0
  0
LINE
  5
1F6
100
AcDbEntity
100
AcDbLine
  8
Dimension
 62
256
370
-1
  6
CENTER2
 10
1.2000000000000004
 20
5.0433983855443527
 30
0.0
 11
1.8000000000000005
 21
5.0433983855443527
 31
0.0
  0
LINE
  5
1F7
100
AcDbEntity
100
AcDbLine
  8
Dimension
 62
256
370
-1
  6
CENTER2
 10
1.2000000000000004
 20
3.9704016144556475
 30
0.0
 11
1.8000000000000005
 21
3.9704016144556475
 31
0.0
  0
LINE
  5
1F8
100
AcDbEntity
100
AcDbLine
  8
Dimension
 62
256
370
-1
  6
CENTER2
 10
1.2000000000000002
 20
2.9790818591960941
 30
0.0
 11
1.8000000000000003
 21
2.9790818591960941
 31
0.0
  0
LINE
  5
1F9
100
AcDbEntity
100
AcDbLine
  8
Dimension
 62
256
370
-1
  6
CENTER2
 10
1.2000000000000002
 20
2.220358566168001
 30
0.0
 11
1.8000000000000003
 21
2.220358566168001
 31
0.0
  0
LINE
  5
1FA
100
AcDbEntity
100
AcDbLine
  8
Dimension
 62
256
370
-1
  6
CENTER2
 10
1.2000000000000002
 20
1.8097404788911162
 30
0.0
 11
1.8000000000000003
 21
1.8097404788911162
 31
0.0
  0
LINE
  5
1FB
100
AcDbEntity
100
AcDbLine
  8
Dimension
 62
256
370
-1
  6
CENTER2
 10
18.2000000000000028
 20
7.2040595211088831
 30
0.0
 11
18.8000000000000043
 21
7.2040595211088831
 31
0.0
  0
LINE
  5
1FC
100
AcDbEntity
100
AcDbLine
  8
Dimension
 62
256
370
-1
  6
CENTER2
 10
18.2000000000000028
 20
6.7934414338319993
 30
0.0
 11
18.8000000000000043
 21
6.7934414338319993
 31
0.0
  0
LINE
  5
1FD
100
AcDbEntity
100
AcDbLine
  8
Dimension
 62
256
370
-1
  6
CENTER2
 10
18.2000000000000028
 20
6.0347181408039061
 30
0.0
 11
18.8000000000000043
 21
6.0347181408039061
 31
0.0
  0
LINE
  5
1FE
100
AcDbEntity
100
AcDbLine
  8
Dimension
 62
256
370
-1
  6
CENTER2
 10
18.2000000000000028
 20
5.0433983855443527
 30
0.0
 11
18.8000000000000043
 21
5.0433983855443527
 31
0.0
  0
LINE
  5
1FF
100
AcDbEntity
100
AcDbLine
  8
Dimension
 62
256
370
-1
  6
CENTER2
 10
18.2000000000000028
 20
3.9704016144556475
 30
0.0
 11
18.8000000000000043
 21
3.9704016144556475
 31
0.0
  0
LINE
  5
200
100
AcDbEntity
100
AcDbLine
  8
Dimension
 62
256
370
-1
  6
CENTER2
 10
18.2000000000000028
 20
2.9790818591960941
 30
0.0
 11
18.8000000000000043
 21
2.9790818591960941
 31
0.0
  0
LINE
  5
201
100
AcDbEntity
100
AcDbLine
  8
Dimension
 62
256
370
-1
  6
CENTER2
 10
18.2000000000000028
 20
2.220358566168001
 30
0.0
 11
18.8000000000000043
 21
2.220358566168001
 31
0.0
  0
LINE
  5
202
100
AcDbEntity
100
AcDbLine
  8
Dimension
 62
256
370
-1
  6
CENTER2
 10
18.2000000000000028
 20
1.8097404788911162
 30
0.0
 11
18.8000000000000043
 21
1.8097404788911162
 31
0.0
  0
LINE
  5
203
100
AcDbEntity
100
AcDbLine
  8
Dimension
 62
256
370
-1
  6
CENTER
 10
10.0
 20
1.7568999999999999
 30
0.0
 11
10.0
 21
7.2568999999999999
 31
0.0
  0
DIMENSION
  5
204
100
AcDbEntity
  8
Dimension
 62
256
370
-1
  6
ByLayer
100
AcDbDimension
 10
18.5000000000000036
 20
1.0999999999999994
 30
0.0
 11
10.0
 21
1.2999999999999994
 31
0.0
 70
0
 71
5
 72
1
 41
1.0
 42
0.0
  1
17\S+.005^\~-.005;
  3
Standard
100
AcDbAlignedDimension
 13
1.5
 23
1.5068999999999999
 33
0.0
 14
18.5000000000000036
 24
1.5
 34
0.0
 50
0.0
100
AcDbRotatedDimension
  0
LINE
  5
205
100
AcDbEntity
100
AcDbLine
  8
Module
 62
256
370
-1
  6
DASHED
 10
1.015625
 20
7.1318999999999999
 30
0.0
 11
2.015625
 21
7.1318999999999999
 31
0.0
  0
LINE
  5
206
100
AcDbEntity
100
AcDbLine
  8
Module
 62
256
370
-1
  6
DASHED
 10
1.015625
 20
1.8818999999999999
 30
0.0
 11
2.015625
 21
1.8818999999999999
 31
0.0
  0
LINE
  5
207
100
AcDbEntity
100
AcDbLine
  8
Module
 62
256
370
-1
  6
DASHED
 10
18.984375
 20
7.1318999999999964
 30
0.0
 11
17.984375
 21
7.1318999999999999
 31
0.0
  0
LINE
  5
208
100
AcDbEntity
100
AcDbLine
  8
Module
 62
256
370
-1
  6
DASHED
 10
18.984375
 20
1.8819000000000075
 30
0.0
 11
17.984375
 21
1.8819000000000126
 31
0.0
  0
MTEXT
  5
209
100
AcDbEntity
100
AcDbMText
  8
Dimension
 62
256
370
-1
  6
ByLayer
 10
19.3999999999999986
 20
1.3999999999999999
 30
0.0
 40
0.2
 41
100.0
 71
1
 72
2
  1
\U+00a9\~2006\~PSAS\Ppsas.pdx.edu\PGPL\~v.2
  7
normallatin1
 50
0.0
 73
0
 44
1.0
  0
LINE
  5
20A
100
AcDbEntity
100
AcDbLine
  8
Dimension
 62
256
370
-1
  6
CENTER
 10
9.75
 20
2.5623563517369941
 30
0.0
 11
10.25
 21
2.5623563517369941
 31
0.0
  0
LINE
  5
20B
100
AcDbEntity
100
AcDbLine
  8
Dimension
 62
256
370
-1
  6
CENTER
 10
9.75
 20
6.4514436482630053
 30
0.0
 11
10.25
 21
6.4514436482630053
 31
0.0
  0
DIMENSION
  5
20C
100
AcDbEntity
  8
Dimension
 62
256
370
-1
  6
ByLayer
100
AcDbDimension
 10
16.6343749999999986
 20
4.5068999999999999
 30
0.0
 11
16.8688848157629216
 21
5.1706997787818567
 31
0.0
 70
4
 71
5
 72
1
 41
1.0
 42
0.0
  1

  3
Standard
100
AcDbRadialDimension
 15
17.4271578698815865
 25
5.5996009294506504
 35
0.0
 40
0.0
  0
LINE
  5
20D
100
AcDbEntity
100
AcDbLine
  8
Dimension
 62
256
370
-1
  6
CENTER
 10
0.5000000000000002
 20
13.5
 30
0.0
 11
6.3000000000000007
 21
13.5
 31
0.0
  0
MTEXT
  5
20E
100
AcDbEntity
100
AcDbMText
  8
Dimension
 62
256
370
-1
  6
ByLayer
 10
4.1883883476483206
 20
14.7883883476483202
 30
0.0
 40
0.2
 41
100.0
 71
1
 72
2
  1
0.125\S+.002\-.002
  7
normallatin1
 50
0.0
 73
1
 44
1.0
  0
MTEXT
  5
20F
100
AcDbEntity
100
AcDbMText
  8
Dimension
 62
256
370
-1
  6
ByLayer
 10
7.6977842424367759
 20
14.5719509479143685
 30
0.0
 40
0.2
 41
100.0
 71
1
 72
2
  1
0.125\S+.002\-.002
  7
normallatin1
 50
0.0
 73
1
 44
1.0
  0
LINE
  5
210
100
AcDbEntity
100
AcDbLine
  8
Dimension
 62
256
370
-1
  6
CENTER2
 10
18.5000000000000036
 20
1.5068999999999999
 30
0.0
 11
18.5000000000000036
 21
13.3000000000000025
 31
0.0
  0
LINE
  5
211
100
AcDbEntity
100
AcDbLine
  8
Dimension
 62
256
370
-1
  6
CENTER
 10
19.5
 20
7.5000000000000009
 30
0.0
 11
19.5
 21
13.3000000000000025
 31
0.0
  0
LINE
  5
212
100
AcDbEntity
100
AcDbLine
  8
Dimension
 62
256
370
-1
  6
CENTER
 10
18.25
 20
12.9251837728421286
 30
0.0
 11
19.75
 21
12.9251837728421286
 31
0.0
  0
LINE
  5
213
100
AcDbEntity
100
AcDbLine
  8
Dimension
 62
256
370
-1
  6
CENTER
 10
18.25
 20
12.3561553006146863
 30
0.0
 11
19.75
 21
12.3561553006146863
 31
0.0
  0
LINE
  5
214
100
AcDbEntity
100
AcDbLine
  8
Dimension
 62
256
370
-1
  6
CENTER
 10
18.25
 20
11.5045440099583605
 30
0.0
 11
19.75
 21
11.5045440099583605
 31
0.0
  0
LINE
  5
215
100
AcDbEntity
100
AcDbLine
  8
Dimension
 62
256
370
-1
  6
CENTER
 10
18.25
 20
9.4954559900416413
 30
0.0
 11
19.75
 21
9.4954559900416413
 31
0.0
  0
LINE
  5
216
100
AcDbEntity
100
AcDbLine
  8
Dimension
 62
256
370
-1
  6
CENTER
 10
18.25
 20
8.6438446993853137
 30
0.0
 11
19.75
 21
8.6438446993853137
 31
0.0
  0
LINE
  5
217
100
AcDbEntity
100
AcDbLine
  8
Dimension
 62
256
370
-1
  6
CENTER
 10
18.25
 20
8.0748162271578732
 30
0.0
 11
19.75
 21
8.0748162271578732
 31
0.0
  0
DIMENSION
  5
218
100
AcDbEntity
  8
Dimension
 62
256
370
-1
  6
ByLayer
100
AcDbDimension
 10
18.5000000000000036
 20
13.5
 30
0.0
 11
18.25
 21
13.6999999999999993
 31
0.0
 70
0
 71
5
 72
1
 41
1.0
 42
0.0
  1
5\S+.005^\~-.005;
  3
Standard
100
AcDbAlignedDimension
 13
18.0
 23
13.125
 33
0.0
 14
18.5000000000000036
 24
13.3000000000000025
 34
0.0
 50
0.0
100
AcDbRotatedDimension
  0
DIMENSION
  5
219
100
AcDbEntity
  8
Dimension
 62
256
370
-1
  6
ByLayer
100
AcDbDimension
 10
19.5
 20
14.0
 30
0.0
 11
19.0
 21
14.1999999999999993
 31
0.0
 70
0
 71
5
 72
1
 41
1.0
 42
0.0
  1
1\S+.005^\~-.005;
  3
Standard
100
AcDbAlignedDimension
 13
18.5000000000000036
 23
13.3000000000000025
 33
0.0
 14
19.5
 24
13.3000000000000025
 34
0.0
 50
0.0
100
AcDbRotatedDimension
  0
DIMENSION
  5
21A
100
AcDbEntity
  8
Dimension
 62
256
370
-1
  6
ByLayer
100
AcDbDimension
 10
20.0
 20
14.5
 30
0.0
 11
19.0
 21
14.6999999999999993
 31
0.0
 70
0
 71
5
 72
1
 41
1.0
 42
0.0
  1
2\S+.01^\~-.01;
  3
Standard
100
AcDbAlignedDimension
 13
18.0
 23
13.125
 33
0.0
 14
20.0
 24
13.125
 34
0.0
 50
0.0
100
AcDbRotatedDimension
  0
MTEXT
  5
21B
100
AcDbEntity
100
AcDbMText
  8
Dimension
 62
256
370
-1
  6
ByLayer
 10
3.5
 20
9.5
 30
0.0
 40
0.2
 41
100.0
 71
1
 72
2
  1
11.25%%d\S+1\-1
  7
normallatin1
 50
0.0
 73
1
 44
1.0
  0
LINE
  5
21C
100
AcDbEntity
100
AcDbLine
  8
Dimension
 62
256
370
-1
  6
ByLayer
 10
4.0000000000000009
 20
16.25
 30
0.0
 11
9.5000000000000018
 21
16.25
 31
0.0
  0
LINE
  5
21D
100
AcDbEntity
100
AcDbLine
  8
Dimension
 62
256
370
-1
  6
ByLayer
 10
6.2000000000000002
 20
10.75
 30
0.0
 11
9.5000000000000018
 21
10.75
 31
0.0
  0
DIMENSION
  5
21E
100
AcDbEntity
  8
Dimension
 62
256
370
-1
  6
ByLayer
100
AcDbDimension
 10
20.0
 20
7.1318999999999964
 30
0.0
 11
19.8000000000000007
 21
4.5069000000000017
 31
0.0
 70
0
 71
5
 72
1
 41
1.0
 42
0.0
  1
5.25\~(I.D.)
  3
Standard
100
AcDbAlignedDimension
 13
18.984375
 23
1.8819000000000075
 33
0.0
 14
18.984375
 24
7.1318999999999964
 34
0.0
 50
90.0
100
AcDbRotatedDimension
  0
DIMENSION
  5
21F
100
AcDbEntity
  8
Dimension
 62
256
370
-1
  6
ByLayer
100
AcDbDimension
 10
20.6000000000000014
 20
7.2568999999999999
 30
0.0
 11
20.4000000000000021
 21
4.5068999999999999
 31
0.0
 70
0
 71
5
 72
1
 41
1.0
 42
0.0
  1
5.5\~(O.D.)
  3
Standard
100
AcDbAlignedDimension
 13
18.984375
 23
1.7568999999999999
 33
0.0
 14
18.984375
 24
7.2568999999999999
 34
0.0
 50
90.0
100
AcDbRotatedDimension
  0
DIMENSION
  5
220
100
AcDbEntity
  8
Dimension
 62
256
370
-1
  6
ByLayer
100
AcDbDimension
 10
20.5
 20
13.0
 30
0.0
 11
20.3000000000000007
 21
10.5
 31
0.0
 70
0
 71
5
 72
1
 41
1.0
 42
0.0
  1
5\~(I.D.)
  3
Standard
100
AcDbAlignedDimension
 13
20.0
 23
8.0
 33
0.0
 14
20.0
 24
13.0
 34
0.0
 50
90.0
100
AcDbRotatedDimension
  0
DIMENSION
  5
221
100
AcDbEntity
  8
Dimension
 62
256
370
-1
  6
ByLayer
100
AcDbDimension
 10
21.0
 20
13.125
 30
0.0
 11
20.8000000000000007
 21
10.5
 31
0.0
 70
0
 71
5
 72
1
 41
1.0
 42
0.0
  1
5.25\~(O.D)
  3
Standard
100
AcDbAlignedDimension
 13
20.0
 23
7.875
 33
0.0
 14
20.0
 24
13.125
 34
0.0
 50
90.0
100
AcDbRotatedDimension
  0
ENDSEC
  0
SECTION
  2
OBJECTS
  0
DICTIONARY
  5
C
100
AcDbDictionary
280
0
281
1
  3
ACAD_GROUP
350
D
  3
ACAD_LAYOUT
350
1A
  3
ACAD_MLINESTYLE
350
17
  3
ACAD_PLOTSETTINGS
350
19
  3
ACAD_PLOTSTYLENAME
350
E
  3
AcDbVariableDictionary
350
222
  0
DICTIONARY
  5
D
100
AcDbDictionary
280
0
281
1
  0
ACDBDICTIONARYWDFLT
  5
E
100
AcDbDictionary
281
1
  3
Normal
350
F
100
AcDbDictionaryWithDefault
340
F
  0
ACDBPLACEHOLDER
  5
F
  0
DICTIONARY
  5
17
100
AcDbDictionary
280
0
281
1
  3
Standard
350
18
  0
MLINESTYLE
  5
18
100
AcDbMlineStyle
  2
STANDARD
 70
0
  3

 62
256
 51
90.0
 52
90.0
 71
2
 49
0.5
 62
256
  6
BYLAYER
 49
-0.5
 62
256
  6
BYLAYER
  0
DICTIONARY
  5
19
100
AcDbDictionary
280
0
281
1
  0
DICTIONARY
  5
1A
100
AcDbDictionary
281
1
  3
Layout1
350
1E
  3
Layout2
350
26
  3
Model
350
22
  0
LAYOUT
  5
1E
100
AcDbPlotSettings
  1

  2
C:\Program Files\AutoCAD 2002\plotters\DWF ePlot (optimized for plotting).pc3
  4

  6

 40
0.0
 41
0.0
 42
0.0
 43
0.0
 44
0.0
 45
0.0
 46
0.0
 47
0.0
 48
0.0
 49
0.0
140
0.0
141
0.0
142
1.0
143
1.0
 70
688
 72
0
 73
0
 74
5
  7

 75
16
147
1.0
148
0.0
149
0.0
100
AcDbLayout
  1
Layout1
 70
1
 71
1
 10
0.0
 20
0.0
 11
420.0
 21
297.0
 12
0.0
 22
0.0
 32
0.0
 14
100000000000000000000.0
 24
100000000000000000000.0
 34
100000000000000000000.0
 15
-100000000000000000000.0
 25
-100000000000000000000.0
 35
-100000000000000000000.0
146
0.0
 13
0.0
 23
0.0
 33
0.0
 16
1.0
 26
0.0
 36
0.0
 17
0.0
 27
1.0
 37
0.0
 76
0
330
1B
  0
LAYOUT
  5
22
100
AcDbPlotSettings
  1

  2
C:\Program Files\AutoCAD 2002\plotters\DWF ePlot (optimized for plotting).pc3
  4

  6

 40
0.0
 41
0.0
 42
0.0
 43
0.0
 44
0.0
 45
0.0
 46
0.0
 47
0.0
 48
0.0
 49
0.0
140
0.0
141
0.0
142
1.0
143
1.0
 70
1712
 72
0
 73
0
 74
0
  7

 75
0
147
1.0
148
0.0
149
0.0
100
AcDbLayout
  1
Model
 70
1
 71
0
 10
0.0
 20
0.0
 11
12.0
 21
9.0
 12
0.0
 22
0.0
 32
0.0
 14
0.0
 24
0.0
 34
0.0
 15
0.0
 25
0.0
 35
0.0
146
0.0
 13
0.0
 23
0.0
 33
0.0
 16
1.0
 26
0.0
 36
0.0
 17
0.0
 27
1.0
 37
0.0
 76
0
330
1F
  0
LAYOUT
  5
26
100
AcDbPlotSettings
  1

  2
C:\Program Files\AutoCAD 2002\plotters\DWF ePlot (optimized for plotting).pc3
  4

  6

 40
0.0
 41
0.0
 42
0.0
 43
0.0
 44
0.0
 45
0.0
 46
0.0
 47
0.0
 48
0.0
 49
0.0
140
0.0
141
0.0
142
1.0
143
1.0
 70
688
 72
0
 73
0
 74
5
  7

 75
16
147
1.0
148
0.0
149
0.0
100
AcDbLayout
  1
Layout2
 70
1
 71
2
 10
0.0
 20
0.0
 11
12.0
 21
9.0
 12
0.0
 22
0.0
 32
0.0
 14
0.0
 24
0.0
 34
0.0
 15
0.0
 25
0.0
 35
0.0
146
0.0
 13
0.0
 23
0.0
 33
0.0
 16
1.0
 26
0.0
 36
0.0
 17
0.0
 27
1.0
 37
0.0
 76
0
330
23
  0
DICTIONARY
  5
222
100
AcDbDictionary
281
1
  3
DIMASSOC
350
224
  3
HIDETEXT
350
223
  0
DICTIONARYVAR
  5
223
100
DictionaryVariables
280
0
  1
2
  0
DICTIONARYVAR
  5
224
100
DictionaryVariables
280
0
  1
1
  0
ENDSEC
  0
EOF
