999
dxflib 2.0.4.8
  0
SECTION
  2
HEADER
  9
$ACADVER
  1
AC1015
  9
$HANDSEED
  5
FFFF
  9
$DIMADEC
 70
1
  9
$GRIDUNIT
 10
0.1
 20
0.1
  9
$DIMASZ
 40
0.25
  9
$DIMGAP
 40
0.1
  9
$LUNITS
 70
2
  9
$AUPREC
 70
1
  9
$SPLINESEGS
 70
8
  9
$INSUNITS
 70
1
  9
$DIMEXO
 40
0.125
  9
$DIMLUNIT
 70
2
  9
$GRIDMODE
 70
1
  9
$DIMTXT
 40
0.2
  9
$LUPREC
 70
3
  9
$PSVPSCALE
 40
0.5
  9
$DIMSTYLE
  2
Standard
  9
$PLIMMIN
 10
0.0
 20
0.0
  9
$PLIMMAX
 10
11.0
 20
8.5
  9
$PINSBASE
 10
0.2249999999999996
 20
0.09375
 30
0.0
  9
$DIMEXE
 40
0.1
  9
$DIMAUNIT
 70
0
  9
$AUNITS
 70
0
  0
ENDSEC
  0
SECTION
  2
TABLES
  0
TABLE
  2
VPORT
  5
8
100
AcDbSymbolTable
 70
1
  0
VPORT
  5
30
100
AcDbSymbolTableRecord
100
AcDbViewportTableRecord
  2
*Active
 70
0
 10
0.0
 20
0.0
 11
1.0
 21
1.0
 12
286.3055555555554861
 22
148.5
 13
0.0
 23
0.0
 14
10.0
 24
10.0
 15
10.0
 25
10.0
 16
0.0
 26
0.0
 36
1.0
 17
0.0
 27
0.0
 37
0.0
 40
297.0
 41
1.92798353909465
 42
50.0
 43
0.0
 44
0.0
 50
0.0
 51
0.0
 71
0
 72
100
 73
1
 74
3
 75
1
 76
1
 77
0
 78
0
281
0
 65
1
110
0.0
120
0.0
130
0.0
111
1.0
121
0.0
131
0.0
112
0.0
122
1.0
132
0.0
 79
0
146
0.0
  0
ENDTAB
  0
TABLE
  2
LTYPE
  5
5
100
AcDbSymbolTable
 70
21
  0
LTYPE
  5
14
100
AcDbSymbolTableRecord
100
AcDbLinetypeTableRecord
  2
ByBlock
 70
0
  3

 72
65
 73
0
 40
0.0
  0
LTYPE
  5
15
100
AcDbSymbolTableRecord
100
AcDbLinetypeTableRecord
  2
ByLayer
 70
0
  3

 72
65
 73
0
 40
0.0
  0
LTYPE
  5
16
100
AcDbSymbolTableRecord
100
AcDbLinetypeTableRecord
  2
CONTINUOUS
 70
0
  3
Solid line
 72
65
 73
0
 40
0.0
  0
LTYPE
  5
31
100
AcDbSymbolTableRecord
100
AcDbLinetypeTableRecord
  2
DOT
 70
0
  3
Dot . . . . . . . . . . . . . . . . . . . . . .
 72
65
 73
2
 40
6.3499999999999996
 49
0.0
 74
0
 49
-6.3499999999999996
 74
0
  0
LTYPE
  5
32
100
AcDbSymbolTableRecord
100
AcDbLinetypeTableRecord
  2
DOT2
 70
0
  3
Dot (.5x) .....................................
 72
65
 73
2
 40
3.1749999999999998
 49
0.0
 74
0
 49
-3.1749999999999998
 74
0
  0
LTYPE
  5
33
100
AcDbSymbolTableRecord
100
AcDbLinetypeTableRecord
  2
DOTX2
 70
0
  3
Dot (2x) .  .  .  .  .  .  .  .  .  .  .  .  .
 72
65
 73
2
 40
12.6999999999999993
 49
0.0
 74
0
 49
-12.6999999999999993
 74
0
  0
LTYPE
  5
34
100
AcDbSymbolTableRecord
100
AcDbLinetypeTableRecord
  2
DASHED
 70
0
  3
Dashed __ __ __ __ __ __ __ __ __ __ __ __ __ _
 72
65
 73
2
 40
19.0500000000000007
 49
12.6999999999999993
 74
0
 49
-6.3499999999999996
 74
0
  0
LTYPE
  5
35
100
AcDbSymbolTableRecord
100
AcDbLinetypeTableRecord
  2
DASHED2
 70
0
  3
Dashed (.5x) _ _ _ _ _ _ _ _ _ _ _ _ _ _ _ _ _
 72
65
 73
2
 40
9.5250000000000004
 49
6.3499999999999996
 74
0
 49
-3.1749999999999998
 74
0
  0
LTYPE
  5
36
100
AcDbSymbolTableRecord
100
AcDbLinetypeTableRecord
  2
DASHEDX2
 70
0
  3
Dashed (2x) ____  ____  ____  ____  ____  ___
 72
65
 73
2
 40
38.1000000000000014
 49
25.3999999999999986
 74
0
 49
-12.6999999999999993
 74
0
  0
LTYPE
  5
37
100
AcDbSymbolTableRecord
100
AcDbLinetypeTableRecord
  2
DASHDOT
 70
0
  3
Dash dot __ . __ . __ . __ . __ . __ . __ . __
 72
65
 73
4
 40
25.3999999999999986
 49
12.6999999999999993
 74
0
 49
-6.3499999999999996
 74
0
 49
0.0
 74
0
 49
-6.3499999999999996
 74
0
  0
LTYPE
  5
38
100
AcDbSymbolTableRecord
100
AcDbLinetypeTableRecord
  2
DASHDOT2
 70
0
  3
Dash dot (.5x) _._._._._._._._._._._._._._._.
 72
65
 73
4
 40
12.6999999999999993
 49
6.3499999999999996
 74
0
 49
-3.1749999999999998
 74
0
 49
0.0
 74
0
 49
-3.1749999999999998
 74
0
  0
LTYPE
  5
39
100
AcDbSymbolTableRecord
100
AcDbLinetypeTableRecord
  2
DASHDOTX2
 70
0
  3
Dash dot (2x) ____  .  ____  .  ____  .  ___
 72
65
 73
4
 40
50.7999999999999972
 49
25.3999999999999986
 74
0
 49
-12.6999999999999993
 74
0
 49
0.0
 74
0
 49
-12.6999999999999993
 74
0
  0
LTYPE
  5
3A
100
AcDbSymbolTableRecord
100
AcDbLinetypeTableRecord
  2
DIVIDE
 70
0
  3
Divide ____ . . ____ . . ____ . . ____ . . ____
 72
65
 73
6
 40
31.75
 49
12.6999999999999993
 74
0
 49
-6.3499999999999996
 74
0
 49
0.0
 74
0
 49
-6.3499999999999996
 74
0
 49
0.0
 74
0
 49
-6.3499999999999996
 74
0
  0
LTYPE
  5
3B
100
AcDbSymbolTableRecord
100
AcDbLinetypeTableRecord
  2
DIVIDE2
 70
0
  3
Divide (.5x) __..__..__..__..__..__..__..__.._
 72
65
 73
6
 40
15.875
 49
6.3499999999999996
 74
0
 49
-3.1749999999999998
 74
0
 49
0.0
 74
0
 49
-3.1749999999999998
 74
0
 49
0.0
 74
0
 49
-3.1749999999999998
 74
0
  0
LTYPE
  5
3C
100
AcDbSymbolTableRecord
100
AcDbLinetypeTableRecord
  2
DIVIDEX2
 70
0
  3
Divide (2x) ________  .  .  ________  .  .  _
 72
65
 73
6
 40
63.5
 49
25.3999999999999986
 74
0
 49
-12.6999999999999993
 74
0
 49
0.0
 74
0
 49
-12.6999999999999993
 74
0
 49
0.0
 74
0
 49
-12.6999999999999993
 74
0
  0
LTYPE
  5
3D
100
AcDbSymbolTableRecord
100
AcDbLinetypeTableRecord
  2
CENTER
 70
0
  3
Center ____ _ ____ _ ____ _ ____ _ ____ _ ____
 72
65
 73
4
 40
50.7999999999999972
 49
31.75
 74
0
 49
-6.3499999999999996
 74
0
 49
6.3499999999999996
 74
0
 49
-6.3499999999999996
 74
0
  0
LTYPE
  5
3E
100
AcDbSymbolTableRecord
100
AcDbLinetypeTableRecord
  2
CENTER2
 70
0
  3
Center (.5x) ___ _ ___ _ ___ _ ___ _ ___ _ ___
 72
65
 73
4
 40
28.5749999999999993
 49
19.0500000000000007
 74
0
 49
-3.1749999999999998
 74
0
 49
3.1749999999999998
 74
0
 49
-3.1749999999999998
 74
0
  0
LTYPE
  5
3F
100
AcDbSymbolTableRecord
100
AcDbLinetypeTableRecord
  2
CENTERX2
 70
0
  3
Center (2x) ________  __  ________  __  _____
 72
65
 73
4
 40
101.5999999999999943
 49
63.5
 74
0
 49
-12.6999999999999993
 74
0
 49
12.6999999999999993
 74
0
 49
-12.6999999999999993
 74
0
  0
LTYPE
  5
40
100
AcDbSymbolTableRecord
100
AcDbLinetypeTableRecord
  2
BORDER
 70
0
  3
Border __ __ . __ __ . __ __ . __ __ . __ __ .
 72
65
 73
6
 40
44.4500000000000028
 49
12.6999999999999993
 74
0
 49
-6.3499999999999996
 74
0
 49
12.6999999999999993
 74
0
 49
-6.3499999999999996
 74
0
 49
0.0
 74
0
 49
-6.3499999999999996
 74
0
  0
LTYPE
  5
41
100
AcDbSymbolTableRecord
100
AcDbLinetypeTableRecord
  2
BORDER2
 70
0
  3
Border (.5x) __.__.__.__.__.__.__.__.__.__.__.
 72
65
 73
6
 40
22.2250000000000014
 49
6.3499999999999996
 74
0
 49
-3.1749999999999998
 74
0
 49
6.3499999999999996
 74
0
 49
-3.1749999999999998
 74
0
 49
0.0
 74
0
 49
-3.1749999999999998
 74
0
  0
LTYPE
  5
42
100
AcDbSymbolTableRecord
100
AcDbLinetypeTableRecord
  2
BORDERX2
 70
0
  3
Border (2x) ____  ____  .  ____  ____  .  ___
 72
65
 73
6
 40
88.9000000000000057
 49
25.3999999999999986
 74
0
 49
-12.6999999999999993
 74
0
 49
25.3999999999999986
 74
0
 49
-12.6999999999999993
 74
0
 49
0.0
 74
0
 49
-12.6999999999999993
 74
0
  0
ENDTAB
  0
TABLE
  2
LAYER
  5
2
100
AcDbSymbolTable
 70
9
  0
LAYER
  5
10
100
AcDbSymbolTableRecord
100
AcDbLayerTableRecord
  2
0
 70
1
 62
1
  6
CONTINUOUS
370
0
390
F
  0
LAYER
  5
43
100
AcDbSymbolTableRecord
100
AcDbLayerTableRecord
  2
Module
 70
0
 62
7
  6
CONTINUOUS
370
50
390
F
  0
LAYER
  5
44
100
AcDbSymbolTableRecord
100
AcDbLayerTableRecord
  2
Coupler
 70
0
 62
32
  6
CONTINUOUS
370
50
390
F
  0
LAYER
  5
45
100
AcDbSymbolTableRecord
100
AcDbLayerTableRecord
  2
Dimension
 70
0
 62
7
  6
CONTINUOUS
370
25
390
F
  0
LAYER
  5
46
100
AcDbSymbolTableRecord
100
AcDbLayerTableRecord
  2
Section
 70
0
 62
7
  6
DIVIDE
370
100
390
F
  0
LAYER
  5
47
100
AcDbSymbolTableRecord
100
AcDbLayerTableRecord
  2
ModHoles
 70
5
 62
5
  6
CONTINUOUS
370
100
390
F
  0
LAYER
  5
48
100
AcDbSymbolTableRecord
100
AcDbLayerTableRecord
  2
CoupHoles
 70
5
 62
5
  6
CONTINUOUS
370
100
390
F
  0
LAYER
  5
49
100
AcDbSymbolTableRecord
100
AcDbLayerTableRecord
  2
1
 70
5
 62
4
  6
CONTINUOUS
370
0
390
F
  0
LAYER
  5
4A
100
AcDbSymbolTableRecord
100
AcDbLayerTableRecord
  2
Boundary
 70
5
 62
1
  6
CONTINUOUS
370
0
390
F
  0
ENDTAB
  0
TABLE
  2
STYLE
  5
3
100
AcDbSymbolTable
 70
1
  0
STYLE
  5
11
100
AcDbSymbolTableRecord
100
AcDbTextStyleTableRecord
  2
Standard
 70
0
 40
0.0
 41
0.75
 50
0.0
 71
0
 42
2.5
  3
txt
  4

  0
ENDTAB
  0
TABLE
  2
VIEW
  5
6
100
AcDbSymbolTable
 70
0
  0
ENDTAB
  0
TABLE
  2
UCS
  5
7
100
AcDbSymbolTable
 70
0
  0
ENDTAB
  0
TABLE
  2
APPID
  5
9
100
AcDbSymbolTable
 70
1
  0
APPID
  5
12
100
AcDbSymbolTableRecord
100
AcDbRegAppTableRecord
  2
ACAD
 70
0
  0
ENDTAB
  0
TABLE
  2
DIMSTYLE
  5
A
100
AcDbSymbolTable
 70
1
100
AcDbDimStyleTable
 71
0
  0
DIMSTYLE
105
27
100
AcDbSymbolTableRecord
100
AcDbDimStyleTableRecord
  2
Standard
 41
0.25
 42
0.125
 43
3.75
 44
0.1
 70
0
 73
0
 74
0
 77
1
 78
8
140
0.2
141
2.5
143
0.03937007874016
147
0.1
171
3
172
1
271
2
272
2
274
3
278
44
283
0
284
8
340
11
  0
ENDTAB
  0
TABLE
  2
BLOCK_RECORD
  5
1
100
AcDbSymbolTable
 70
1
  0
BLOCK_RECORD
  5
1F
100
AcDbSymbolTableRecord
100
AcDbBlockTableRecord
  2
*Model_Space
340
22
  0
BLOCK_RECORD
  5
1B
100
AcDbSymbolTableRecord
100
AcDbBlockTableRecord
  2
*Paper_Space
340
1E
  0
BLOCK_RECORD
  5
23
100
AcDbSymbolTableRecord
100
AcDbBlockTableRecord
  2
*Paper_Space0
340
26
  0
BLOCK_RECORD
  5
4B
100
AcDbSymbolTableRecord
100
AcDbBlockTableRecord
  2
Module
340
0
  0
BLOCK_RECORD
  5
4C
100
AcDbSymbolTableRecord
100
AcDbBlockTableRecord
  2
Coupler
340
0
  0
ENDTAB
  0
ENDSEC
  0
SECTION
  2
BLOCKS
  0
BLOCK
  5
20
100
AcDbEntity
  8
0
100
AcDbBlockBegin
  2
*Model_Space
 70
0
 10
0.0
 20
0.0
 30
0.0
  3
*Model_Space
  1

  0
ENDBLK
  5
21
100
AcDbEntity
  8
0
100
AcDbBlockEnd
  0
BLOCK
  5
1C
100
AcDbEntity
 67
1
  8
0
100
AcDbBlockBegin
  2
*Paper_Space
 70
0
 10
0.0
 20
0.0
 30
0.0
  3
*Paper_Space
  1

  0
ENDBLK
  5
1D
100
AcDbEntity
 67
1
  8
0
100
AcDbBlockEnd
  0
BLOCK
  5
24
100
AcDbEntity
  8
0
100
AcDbBlockBegin
  2
*Paper_Space0
 70
0
 10
0.0
 20
0.0
 30
0.0
  3
*Paper_Space0
  1

  0
ENDBLK
  5
25
100
AcDbEntity
  8
0
100
AcDbBlockEnd
  0
BLOCK
  5
4D
100
AcDbEntity
  8
0
100
AcDbBlockBegin
  2
Module
 70
0
 10
0.0
 20
0.0
 30
0.0
  3
Module
  1

  0
ENDBLK
  5
4E
100
AcDbEntity
  8
0
100
AcDbBlockEnd
  0
BLOCK
  5
4F
100
AcDbEntity
  8
0
100
AcDbBlockBegin
  2
Coupler
 70
0
 10
0.0
 20
0.0
 30
0.0
  3
Coupler
  1

  0
ENDBLK
  5
50
100
AcDbEntity
  8
0
100
AcDbBlockEnd
  0
ENDSEC
  0
SECTION
  2
ENTITIES
  0
LINE
  5
51
100
AcDbEntity
100
AcDbLine
  8
Module
 62
256
370
-1
  6
ByLayer
 10
3.2999999999999998
 20
3.3250000000000002
 30
0.0
 11
16.6999999999999993
 21
3.3250000000000002
 31
0.0
  0
LINE
  5
52
100
AcDbEntity
100
AcDbLine
  8
Module
 62
256
370
-1
  6
ByLayer
 10
3.2999999999999998
 20
5.9249999999999998
 30
0.0
 11
16.6999999999999993
 21
5.9249999999999998
 31
0.0
  0
LINE
  5
53
100
AcDbEntity
100
AcDbLine
  8
Coupler
 62
256
370
-1
  6
ByLayer
 10
20.0
 20
8.0
 30
0.0
 11
20.0
 21
13.0
 31
0.0
  0
LINE
  5
54
100
AcDbEntity
100
AcDbLine
  8
Coupler
 62
256
370
-1
  6
ByLayer
 10
18.0
 20
13.0
 30
0.0
 11
18.0
 21
8.0
 31
0.0
  0
LINE
  5
55
100
AcDbEntity
100
AcDbLine
  8
Coupler
 62
256
370
-1
  6
ByLayer
 10
20.0
 20
13.0
 30
0.0
 11
18.0
 21
13.0
 31
0.0
  0
LINE
  5
56
100
AcDbEntity
100
AcDbLine
  8
Coupler
 62
256
370
-1
  6
ByLayer
 10
18.0
 20
8.0
 30
0.0
 11
20.0
 21
8.0
 31
0.0
  0
LINE
  5
57
100
AcDbEntity
100
AcDbLine
  8
Module
 62
256
370
100
  6
ByLayer
 10
1.015625
 20
7.25
 30
0.0
 11
1.015625
 21
2.0
 31
0.0
  0
LINE
  5
58
100
AcDbEntity
100
AcDbLine
  8
0
 62
256
370
-1
  6
ByLayer
 10
2.015625
 20
7.25
 30
0.0
 11
2.015625
 21
1.9999999999999998
 31
0.0
  0
LINE
  5
59
100
AcDbEntity
100
AcDbLine
  8
0
 62
256
370
-1
  6
ByLayer
 10
3.3156249999999998
 20
7.25
 30
0.0
 11
3.3156249999999998
 21
1.9999999999999993
 31
0.0
  0
ARC
  5
5A
100
AcDbEntity
  8
Module
 62
256
370
-1
  6
ByLayer
100
AcDbCircle
 10
3.3156249999999998
 20
4.625
 30
0.0
 40
1.3
100
AcDbArc
 50
90.0
 51
270.0
  0
LINE
  5
5B
100
AcDbEntity
100
AcDbLine
  8
Module
 62
256
370
100
  6
ByLayer
 10
1.015625
 20
2.0
 30
0.0
 11
2.015625
 21
2.0
 31
0.0
  0
LINE
  5
5C
100
AcDbEntity
100
AcDbLine
  8
Module
 62
256
370
100
  6
ByLayer
 10
2.015625
 20
7.25
 30
0.0
 11
1.015625
 21
7.25
 31
0.0
  0
LINE
  5
5D
100
AcDbEntity
100
AcDbLine
  8
Module
 62
256
370
100
  6
ByLayer
 10
18.984375
 20
2.0
 30
0.0
 11
18.984375
 21
7.25
 31
0.0
  0
LINE
  5
5E
100
AcDbEntity
100
AcDbLine
  8
0
 62
256
370
-1
  6
ByLayer
 10
17.984375
 20
2.0
 30
0.0
 11
17.984375
 21
7.25
 31
0.0
  0
LINE
  5
5F
100
AcDbEntity
100
AcDbLine
  8
0
 62
256
370
-1
  6
ByLayer
 10
16.6843749999999993
 20
2.0000000000000004
 30
0.0
 11
16.6843749999999993
 21
7.25
 31
0.0
  0
ARC
  5
60
100
AcDbEntity
  8
Module
 62
256
370
-1
  6
ByLayer
100
AcDbCircle
 10
16.6843749999999993
 20
4.625
 30
0.0
 40
1.3
100
AcDbArc
 50
270.0
 51
90.0
  0
LINE
  5
61
100
AcDbEntity
100
AcDbLine
  8
Module
 62
256
370
100
  6
ByLayer
 10
17.984375
 20
2.0
 30
0.0
 11
18.984375
 21
2.0
 31
0.0
  0
LINE
  5
62
100
AcDbEntity
100
AcDbLine
  8
Module
 62
256
370
100
  6
ByLayer
 10
18.984375
 20
7.25
 30
0.0
 11
17.984375
 21
7.25
 31
0.0
  0
ELLIPSE
  5
63
100
AcDbEntity
100
AcDbEllipse
  8
Module
 62
256
370
-1
  6
ByLayer
 10
3.3156249999999998
 20
7.25
 30
0.0
 11
-1.2999999999999998
 21
0.0
 31
0.0
 40
0.1257692307692308
 41
0.0
 42
1.5707963267948966
  0
ELLIPSE
  5
64
100
AcDbEntity
100
AcDbEllipse
  8
Module
 62
256
370
-1
  6
ByLayer
 10
3.3156249999999998
 20
2.0
 30
0.0
 11
-1.2999999999999998
 21
0.0
 31
0.0
 40
0.1257692307692308
 41
4.7123889803846888
 42
6.2831853071795862
  0
ELLIPSE
  5
65
100
AcDbEntity
100
AcDbEllipse
  8
Module
 62
256
370
-1
  6
ByLayer
 10
16.6843749999999993
 20
7.25
 30
0.0
 11
1.3000000000000007
 21
0.0
 31
0.0
 40
0.1257692307692307
 41
4.7123889803846897
 42
6.2831853071795862
  0
ELLIPSE
  5
66
100
AcDbEntity
100
AcDbEllipse
  8
Module
 62
256
370
-1
  6
ByLayer
 10
16.6843749999999993
 20
2.0
 30
0.0
 11
1.3000000000000007
 21
0.0
 31
0.0
 40
0.1257692307692305
 41
0.0
 42
1.5707963267948966
  0
LINE
  5
67
100
AcDbEntity
100
AcDbLine
  8
Module
 62
256
370
-1
  6
ByLayer
 10
3.3156249999999998
 20
2.1634999999999964
 30
0.0
 11
16.6843749999999993
 21
2.1634999999999995
 31
0.0
  0
LINE
  5
68
100
AcDbEntity
100
AcDbLine
  8
Module
 62
256
370
-1
  6
ByLayer
 10
16.6843749999999993
 20
7.0865
 30
0.0
 11
3.3156249999999998
 21
7.0865000000000036
 31
0.0
  0
LINE
  5
69
100
AcDbEntity
100
AcDbLine
  8
0
 62
256
370
-1
  6
ByLayer
 10
18.5000000000000036
 20
2.0
 30
0.0
 11
18.5000000000000036
 21
7.25
 31
0.0
  0
LINE
  5
6A
100
AcDbEntity
100
AcDbLine
  8
0
 62
256
370
-1
  6
ByLayer
 10
19.5
 20
8.0
 30
0.0
 11
19.5
 21
13.0
 31
0.0
  0
LINE
  5
6B
100
AcDbEntity
100
AcDbLine
  8
0
 62
256
370
-1
  6
ByLayer
 10
-1.9999999999999996
 20
2.0
 30
0.0
 11
-1.9999999999999989
 21
12.0
 31
0.0
  0
LINE
  5
6C
100
AcDbEntity
100
AcDbLine
  8
0
 62
256
370
-1
  6
ByLayer
 10
-4.625
 20
4.625
 30
0.0
 11
19.0
 21
4.625
 31
0.0
  0
LINE
  5
6D
100
AcDbEntity
100
AcDbLine
  8
0
 62
256
370
-1
  6
ByLayer
 10
0.5385000334866914
 20
4.6799999999999997
 30
0.0
 11
0.5385000334866914
 21
4.5700000000000003
 31
0.0
  0
LINE
  5
6E
100
AcDbEntity
100
AcDbLine
  8
0
 62
256
370
-1
  6
ByLayer
 10
-1.6135424679129056
 20
7.2213966522650495
 30
0.0
 11
18.984375
 21
7.2213966522650495
 31
0.0
  0
LINE
  5
6F
100
AcDbEntity
100
AcDbLine
  8
0
 62
256
370
-1
  6
ByLayer
 10
-1.363442221410071
 20
7.1716486201509344
 30
0.0
 11
18.984375
 21
7.1716486201509344
 31
0.0
  0
LINE
  5
70
100
AcDbEntity
100
AcDbLine
  8
0
 62
256
370
-1
  6
ByLayer
 10
-0.649361813249892
 20
6.8758668304660731
 30
0.0
 11
18.984375
 21
6.8758668304660731
 31
0.0
  0
LINE
  5
71
100
AcDbEntity
100
AcDbLine
  8
0
 62
256
370
-1
  6
ByLayer
 10
-0.4373370621127333
 20
6.7341964210460681
 30
0.0
 11
18.984375
 21
6.7341964210460681
 31
0.0
  0
LINE
  5
72
100
AcDbEntity
100
AcDbLine
  8
0
 62
256
370
-1
  6
ByLayer
 10
0.1091964210460696
 20
6.1876629378872643
 30
0.0
 11
18.984375
 21
6.1876629378872643
 31
0.0
  0
LINE
  5
73
100
AcDbEntity
100
AcDbLine
  8
0
 62
256
370
-1
  6
ByLayer
 10
0.2508668304660746
 20
5.9756381867501043
 30
0.0
 11
18.984375
 21
5.9756381867501043
 31
0.0
  0
LINE
  5
74
100
AcDbEntity
100
AcDbLine
  8
0
 62
256
370
-1
  6
ByLayer
 10
0.5466486201509355
 20
5.2615577785899275
 30
0.0
 11
18.984375
 21
5.2615577785899275
 31
0.0
  0
LINE
  5
75
100
AcDbEntity
100
AcDbLine
  8
0
 62
256
370
-1
  6
ByLayer
 10
0.5963966522650501
 20
5.0114575320870927
 30
0.0
 11
18.984375
 21
5.0114575320870927
 31
0.0
  0
LINE
  5
76
100
AcDbEntity
100
AcDbLine
  8
0
 62
256
370
-1
  6
ByLayer
 10
0.5963966522650497
 20
4.2385424679129056
 30
0.0
 11
18.984375
 21
4.2385424679129056
 31
0.0
  0
LINE
  5
77
100
AcDbEntity
100
AcDbLine
  8
0
 62
256
370
-1
  6
ByLayer
 10
0.5466486201509346
 20
3.9884422214100708
 30
0.0
 11
18.984375
 21
3.9884422214100708
 31
0.0
  0
LINE
  5
78
100
AcDbEntity
100
AcDbLine
  8
0
 62
256
370
-1
  6
ByLayer
 10
0.2508668304660737
 20
3.2743618132498931
 30
0.0
 11
18.984375
 21
3.2743618132498931
 31
0.0
  0
LINE
  5
79
100
AcDbEntity
100
AcDbLine
  8
0
 62
256
370
-1
  6
ByLayer
 10
0.1091964210460679
 20
3.0623370621127322
 30
0.0
 11
18.984375
 21
3.0623370621127322
 31
0.0
  0
LINE
  5
7A
100
AcDbEntity
100
AcDbLine
  8
0
 62
256
370
-1
  6
ByLayer
 10
-0.437337062112733
 20
2.5158035789539324
 30
0.0
 11
18.984375
 21
2.5158035789539324
 31
0.0
  0
LINE
  5
7B
100
AcDbEntity
100
AcDbLine
  8
0
 62
256
370
-1
  6
ByLayer
 10
-0.6493618132498935
 20
2.3741331695339265
 30
0.0
 11
18.984375
 21
2.3741331695339265
 31
0.0
  0
LINE
  5
7C
100
AcDbEntity
100
AcDbLine
  8
0
 62
256
370
-1
  6
ByLayer
 10
-1.363442221410071
 20
2.0783513798490656
 30
0.0
 11
18.984375
 21
2.0783513798490656
 31
0.0
  0
LINE
  5
7D
100
AcDbEntity
100
AcDbLine
  8
0
 62
256
370
-1
  6
ByLayer
 10
-1.6135424679129038
 20
2.028603347734951
 30
0.0
 11
18.984375
 21
2.028603347734951
 31
0.0
  0
LINE
  5
7E
100
AcDbEntity
100
AcDbLine
  8
0
 62
256
370
-1
  6
ByLayer
 10
1.5000000000000004
 20
7.2213966522650495
 30
0.0
 11
1.5000000000000004
 21
7.25
 31
0.0
  0
LINE
  5
7F
100
AcDbEntity
100
AcDbLine
  8
0
 62
256
370
-1
  6
ByLayer
 10
1.5000000000000004
 20
7.1716486201509344
 30
0.0
 11
1.5000000000000004
 21
7.2213966522650495
 31
0.0
  0
LINE
  5
80
100
AcDbEntity
100
AcDbLine
  8
0
 62
256
370
-1
  6
ByLayer
 10
1.5000000000000004
 20
6.8758668304660731
 30
0.0
 11
1.5000000000000004
 21
7.1716486201509344
 31
0.0
  0
LINE
  5
81
100
AcDbEntity
100
AcDbLine
  8
0
 62
256
370
-1
  6
ByLayer
 10
1.5000000000000004
 20
6.7341964210460681
 30
0.0
 11
1.5000000000000004
 21
6.8758668304660731
 31
0.0
  0
LINE
  5
82
100
AcDbEntity
100
AcDbLine
  8
0
 62
256
370
-1
  6
ByLayer
 10
1.5000000000000004
 20
6.1876629378872643
 30
0.0
 11
1.5000000000000004
 21
6.7341964210460681
 31
0.0
  0
LINE
  5
83
100
AcDbEntity
100
AcDbLine
  8
0
 62
256
370
-1
  6
ByLayer
 10
1.5000000000000004
 20
5.9756381867501043
 30
0.0
 11
1.5000000000000004
 21
6.1876629378872643
 31
0.0
  0
LINE
  5
84
100
AcDbEntity
100
AcDbLine
  8
0
 62
256
370
-1
  6
ByLayer
 10
1.5000000000000004
 20
5.2615577785899275
 30
0.0
 11
1.5000000000000004
 21
5.9756381867501043
 31
0.0
  0
LINE
  5
85
100
AcDbEntity
100
AcDbLine
  8
0
 62
256
370
-1
  6
ByLayer
 10
1.5000000000000004
 20
5.0114575320870927
 30
0.0
 11
1.5000000000000004
 21
5.2615577785899275
 31
0.0
  0
LINE
  5
86
100
AcDbEntity
100
AcDbLine
  8
0
 62
256
370
-1
  6
ByLayer
 10
1.5000000000000002
 20
4.2385424679129056
 30
0.0
 11
1.5000000000000004
 21
5.0114575320870927
 31
0.0
  0
LINE
  5
87
100
AcDbEntity
100
AcDbLine
  8
0
 62
256
370
-1
  6
ByLayer
 10
1.5000000000000002
 20
3.9884422214100708
 30
0.0
 11
1.5000000000000002
 21
4.2385424679129056
 31
0.0
  0
LINE
  5
88
100
AcDbEntity
100
AcDbLine
  8
0
 62
256
370
-1
  6
ByLayer
 10
1.5000000000000002
 20
3.2743618132498931
 30
0.0
 11
1.5000000000000002
 21
3.9884422214100708
 31
0.0
  0
LINE
  5
89
100
AcDbEntity
100
AcDbLine
  8
0
 62
256
370
-1
  6
ByLayer
 10
1.5000000000000002
 20
3.0623370621127322
 30
0.0
 11
1.5000000000000002
 21
3.2743618132498931
 31
0.0
  0
LINE
  5
8A
100
AcDbEntity
100
AcDbLine
  8
0
 62
256
370
-1
  6
ByLayer
 10
1.5
 20
2.5158035789539324
 30
0.0
 11
1.5000000000000002
 21
3.0623370621127322
 31
0.0
  0
LINE
  5
8B
100
AcDbEntity
100
AcDbLine
  8
0
 62
256
370
-1
  6
ByLayer
 10
1.5
 20
2.3741331695339265
 30
0.0
 11
1.5
 21
2.5158035789539324
 31
0.0
  0
LINE
  5
8C
100
AcDbEntity
100
AcDbLine
  8
0
 62
256
370
-1
  6
ByLayer
 10
1.5
 20
2.0783513798490656
 30
0.0
 11
1.5
 21
2.3741331695339265
 31
0.0
  0
LINE
  5
8D
100
AcDbEntity
100
AcDbLine
  8
0
 62
256
370
-1
  6
ByLayer
 10
1.5
 20
2.0
 30
0.0
 11
1.5
 21
2.028603347734951
 31
0.0
  0
LINE
  5
8E
100
AcDbEntity
100
AcDbLine
  8
0
 62
256
370
-1
  6
ByLayer
 10
1.5
 20
2.028603347734951
 30
0.0
 11
1.5
 21
2.0783513798490656
 31
0.0
  0
LINE
  5
8F
100
AcDbEntity
100
AcDbLine
  8
0
 62
256
370
-1
  6
ByLayer
 10
1.3725000000000005
 20
7.2213966522650495
 30
0.0
 11
1.3725000000000005
 21
7.25
 31
0.0
  0
LINE
  5
90
100
AcDbEntity
100
AcDbLine
  8
0
 62
256
370
-1
  6
ByLayer
 10
1.3725000000000005
 20
7.1716486201509344
 30
0.0
 11
1.3725000000000005
 21
7.2213966522650495
 31
0.0
  0
LINE
  5
91
100
AcDbEntity
100
AcDbLine
  8
0
 62
256
370
-1
  6
ByLayer
 10
1.3725000000000005
 20
6.8758668304660731
 30
0.0
 11
1.3725000000000005
 21
7.1716486201509344
 31
0.0
  0
LINE
  5
92
100
AcDbEntity
100
AcDbLine
  8
0
 62
256
370
-1
  6
ByLayer
 10
1.3725000000000005
 20
6.7341964210460681
 30
0.0
 11
1.3725000000000005
 21
6.8758668304660731
 31
0.0
  0
LINE
  5
93
100
AcDbEntity
100
AcDbLine
  8
0
 62
256
370
-1
  6
ByLayer
 10
1.3725000000000005
 20
6.1876629378872643
 30
0.0
 11
1.3725000000000005
 21
6.7341964210460681
 31
0.0
  0
LINE
  5
94
100
AcDbEntity
100
AcDbLine
  8
0
 62
256
370
-1
  6
ByLayer
 10
1.3725000000000005
 20
5.9756381867501043
 30
0.0
 11
1.3725000000000005
 21
6.1876629378872643
 31
0.0
  0
LINE
  5
95
100
AcDbEntity
100
AcDbLine
  8
0
 62
256
370
-1
  6
ByLayer
 10
1.3725000000000005
 20
5.2615577785899275
 30
0.0
 11
1.3725000000000005
 21
5.9756381867501043
 31
0.0
  0
LINE
  5
96
100
AcDbEntity
100
AcDbLine
  8
0
 62
256
370
-1
  6
ByLayer
 10
1.3725000000000005
 20
5.0114575320870927
 30
0.0
 11
1.3725000000000005
 21
5.2615577785899275
 31
0.0
  0
LINE
  5
97
100
AcDbEntity
100
AcDbLine
  8
0
 62
256
370
-1
  6
ByLayer
 10
1.3725000000000005
 20
4.2385424679129056
 30
0.0
 11
1.3725000000000005
 21
5.0114575320870927
 31
0.0
  0
LINE
  5
98
100
AcDbEntity
100
AcDbLine
  8
0
 62
256
370
-1
  6
ByLayer
 10
1.3725000000000005
 20
3.9884422214100708
 30
0.0
 11
1.3725000000000005
 21
4.2385424679129056
 31
0.0
  0
LINE
  5
99
100
AcDbEntity
100
AcDbLine
  8
0
 62
256
370
-1
  6
ByLayer
 10
1.3725000000000005
 20
3.2743618132498931
 30
0.0
 11
1.3725000000000005
 21
3.9884422214100708
 31
0.0
  0
LINE
  5
9A
100
AcDbEntity
100
AcDbLine
  8
0
 62
256
370
-1
  6
ByLayer
 10
1.3725000000000005
 20
3.0623370621127322
 30
0.0
 11
1.3725000000000005
 21
3.2743618132498931
 31
0.0
  0
LINE
  5
9B
100
AcDbEntity
100
AcDbLine
  8
0
 62
256
370
-1
  6
ByLayer
 10
1.3725000000000005
 20
2.5158035789539324
 30
0.0
 11
1.3725000000000005
 21
3.0623370621127322
 31
0.0
  0
LINE
  5
9C
100
AcDbEntity
100
AcDbLine
  8
0
 62
256
370
-1
  6
ByLayer
 10
1.3725000000000005
 20
2.3741331695339265
 30
0.0
 11
1.3725000000000005
 21
2.5158035789539324
 31
0.0
  0
LINE
  5
9D
100
AcDbEntity
100
AcDbLine
  8
0
 62
256
370
-1
  6
ByLayer
 10
1.3725000000000005
 20
2.0783513798490656
 30
0.0
 11
1.3725000000000005
 21
2.3741331695339265
 31
0.0
  0
LINE
  5
9E
100
AcDbEntity
100
AcDbLine
  8
0
 62
256
370
-1
  6
ByLayer
 10
1.3725000000000005
 20
2.0
 30
0.0
 11
1.3725000000000005
 21
2.028603347734951
 31
0.0
  0
LINE
  5
9F
100
AcDbEntity
100
AcDbLine
  8
0
 62
256
370
-1
  6
ByLayer
 10
1.3725000000000005
 20
2.028603347734951
 30
0.0
 11
1.3725000000000005
 21
2.0783513798490656
 31
0.0
  0
ELLIPSE
  5
A0
100
AcDbEntity
100
AcDbEllipse
  8
Module
 62
256
370
-1
  6
ByLayer
 10
1.5000000000000004
 20
7.1965226362079919
 30
0.0
 11
-0.1274999999999999
 21
0.0
 31
0.0
 40
0.1950903220161375
 41
0.0
 42
6.2831853071795862
  0
ELLIPSE
  5
A1
100
AcDbEntity
100
AcDbEllipse
  8
Module
 62
256
370
-1
  6
ByLayer
 10
1.5000000000000004
 20
6.8050316257560706
 30
0.0
 11
-0.1274999999999999
 21
0.0
 31
0.0
 40
0.5555702330196276
 41
0.0
 42
6.2831853071795862
  0
ELLIPSE
  5
A2
100
AcDbEntity
100
AcDbEllipse
  8
Module
 62
256
370
-1
  6
ByLayer
 10
1.5000000000000004
 20
6.0816505623186838
 30
0.0
 11
-0.1274999999999999
 21
0.0
 31
0.0
 40
0.8314696123025922
 41
0.0
 42
6.2831853071795862
  0
ELLIPSE
  5
A3
100
AcDbEntity
100
AcDbEllipse
  8
Module
 62
256
370
-1
  6
ByLayer
 10
1.5000000000000004
 20
5.1365076553385105
 30
0.0
 11
-0.1274999999999999
 21
0.0
 31
0.0
 40
0.9807852804032706
 41
0.0
 42
6.2831853071795862
  0
ELLIPSE
  5
A4
100
AcDbEntity
100
AcDbEllipse
  8
Module
 62
256
370
-1
  6
ByLayer
 10
1.5000000000000002
 20
4.1134923446614877
 30
0.0
 11
-0.1274999999999997
 21
0.0
 31
0.0
 40
0.9807852804032793
 41
0.0
 42
6.2831853071795862
  0
ELLIPSE
  5
A5
100
AcDbEntity
100
AcDbEllipse
  8
Module
 62
256
370
-1
  6
ByLayer
 10
1.5000000000000002
 20
3.1683494376813126
 30
0.0
 11
-0.1274999999999997
 21
0.0
 31
0.0
 40
0.8314696123025935
 41
0.0
 42
6.2831853071795862
  0
ELLIPSE
  5
A6
100
AcDbEntity
100
AcDbEllipse
  8
Module
 62
256
370
-1
  6
ByLayer
 10
1.5
 20
2.4449683742439294
 30
0.0
 11
-0.1274999999999995
 21
0.0
 31
0.0
 40
0.555570233019633
 41
0.0
 42
6.2831853071795862
  0
ELLIPSE
  5
A7
100
AcDbEntity
100
AcDbEllipse
  8
Module
 62
256
370
-1
  6
ByLayer
 10
1.5
 20
2.0534773637920081
 30
0.0
 11
-0.1274999999999995
 21
0.0
 31
0.0
 40
0.1950903220161382
 41
0.0
 42
6.2831853071795862
  0
ELLIPSE
  5
A8
100
AcDbEntity
100
AcDbEllipse
  8
Module
 62
256
370
-1
  6
ByLayer
 10
18.5000000000000036
 20
7.1965226362079919
 30
0.0
 11
-0.1274999999999999
 21
0.0
 31
0.0
 40
0.1950903220161375
 41
0.0
 42
6.2831853071795862
  0
ELLIPSE
  5
A9
100
AcDbEntity
100
AcDbEllipse
  8
Module
 62
256
370
-1
  6
ByLayer
 10
18.5000000000000036
 20
6.8050316257560706
 30
0.0
 11
-0.1274999999999999
 21
0.0
 31
0.0
 40
0.5555702330196276
 41
0.0
 42
6.2831853071795862
  0
ELLIPSE
  5
AA
100
AcDbEntity
100
AcDbEllipse
  8
Module
 62
256
370
-1
  6
ByLayer
 10
18.5000000000000036
 20
6.0816505623186838
 30
0.0
 11
-0.1274999999999999
 21
0.0
 31
0.0
 40
0.8314696123025922
 41
0.0
 42
6.2831853071795862
  0
ELLIPSE
  5
AB
100
AcDbEntity
100
AcDbEllipse
  8
Module
 62
256
370
-1
  6
ByLayer
 10
18.5000000000000036
 20
5.1365076553385105
 30
0.0
 11
-0.1274999999999999
 21
0.0
 31
0.0
 40
0.9807852804032706
 41
0.0
 42
6.2831853071795862
  0
ELLIPSE
  5
AC
100
AcDbEntity
100
AcDbEllipse
  8
Module
 62
256
370
-1
  6
ByLayer
 10
18.5000000000000036
 20
4.1134923446614877
 30
0.0
 11
-0.1274999999999997
 21
0.0
 31
0.0
 40
0.9807852804032793
 41
0.0
 42
6.2831853071795862
  0
ELLIPSE
  5
AD
100
AcDbEntity
100
AcDbEllipse
  8
Module
 62
256
370
-1
  6
ByLayer
 10
18.5000000000000036
 20
3.1683494376813126
 30
0.0
 11
-0.1274999999999997
 21
0.0
 31
0.0
 40
0.8314696123025935
 41
0.0
 42
6.2831853071795862
  0
ELLIPSE
  5
AE
100
AcDbEntity
100
AcDbEllipse
  8
Module
 62
256
370
-1
  6
ByLayer
 10
18.5000000000000036
 20
2.4449683742439294
 30
0.0
 11
-0.1274999999999995
 21
0.0
 31
0.0
 40
0.555570233019633
 41
0.0
 42
6.2831853071795862
  0
ELLIPSE
  5
AF
100
AcDbEntity
100
AcDbEllipse
  8
Module
 62
256
370
-1
  6
ByLayer
 10
18.5000000000000036
 20
2.0534773637920081
 30
0.0
 11
-0.1274999999999995
 21
0.0
 31
0.0
 40
0.1950903220161382
 41
0.0
 42
6.2831853071795862
  0
LINE
  5
B0
100
AcDbEntity
100
AcDbLine
  8
0
 62
256
370
-1
  6
ByLayer
 10
0.0
 20
10.5
 30
0.0
 11
22.0
 21
10.5
 31
0.0
  0
LINE
  5
B1
100
AcDbEntity
100
AcDbLine
  8
0
 62
256
370
-1
  6
ByLayer
 10
16.4996301726455457
 20
10.5429999999999993
 30
0.0
 11
26.4996301726455457
 21
10.5429999999999993
 31
0.0
  0
LINE
  5
B2
100
AcDbEntity
100
AcDbLine
  8
0
 62
256
370
-1
  6
ByLayer
 10
16.4996301726455457
 20
10.4570000000000007
 30
0.0
 11
26.4996301726455457
 21
10.4570000000000007
 31
0.0
  0
LINE
  5
B3
100
AcDbEntity
100
AcDbLine
  8
0
 62
256
370
-1
  6
ByLayer
 10
16.2929017677631727
 20
11.4962938740093286
 30
0.0
 11
26.2929017677631727
 21
11.4962938740093286
 31
0.0
  0
LINE
  5
B4
100
AcDbEntity
100
AcDbLine
  8
0
 62
256
370
-1
  6
ByLayer
 10
15.7979110371271894
 20
12.2370998539451428
 30
0.0
 11
25.7979110371271894
 21
12.2370998539451428
 31
0.0
  0
LINE
  5
B5
100
AcDbEntity
100
AcDbLine
  8
0
 62
256
370
-1
  6
ByLayer
 10
15.7370998539451428
 20
12.2979110371271911
 30
0.0
 11
25.7370998539451428
 21
12.2979110371271911
 31
0.0
  0
LINE
  5
B6
100
AcDbEntity
100
AcDbLine
  8
0
 62
256
370
-1
  6
ByLayer
 10
14.9962938740093286
 20
12.7929017677631744
 30
0.0
 11
24.9962938740093286
 21
12.7929017677631744
 31
0.0
  0
LINE
  5
B7
100
AcDbEntity
100
AcDbLine
  8
0
 62
256
370
-1
  6
ByLayer
 10
14.9168402342133515
 20
12.8258125429465757
 30
0.0
 11
24.9168402342133533
 21
12.8258125429465757
 31
0.0
  0
LINE
  5
B8
100
AcDbEntity
100
AcDbLine
  8
0
 62
256
370
-1
  6
ByLayer
 10
16.3258125429465721
 20
9.5831597657866485
 30
0.0
 11
26.3258125429465721
 21
9.5831597657866485
 31
0.0
  0
LINE
  5
B9
100
AcDbEntity
100
AcDbLine
  8
0
 62
256
370
-1
  6
ByLayer
 10
16.2929017677631727
 20
9.5037061259906714
 30
0.0
 11
26.2929017677631727
 21
9.5037061259906714
 31
0.0
  0
LINE
  5
BA
100
AcDbEntity
100
AcDbLine
  8
0
 62
256
370
-1
  6
ByLayer
 10
15.7979110371271894
 20
8.762900146054859
 30
0.0
 11
25.7979110371271894
 21
8.762900146054859
 31
0.0
  0
LINE
  5
BB
100
AcDbEntity
100
AcDbLine
  8
0
 62
256
370
-1
  6
ByLayer
 10
15.7370998539451428
 20
8.7020889628728124
 30
0.0
 11
25.7370998539451428
 21
8.7020889628728124
 31
0.0
  0
LINE
  5
BC
100
AcDbEntity
100
AcDbLine
  8
0
 62
256
370
-1
  6
ByLayer
 10
14.9962938740093286
 20
8.2070982322368291
 30
0.0
 11
24.9962938740093286
 21
8.2070982322368291
 31
0.0
  0
LINE
  5
BD
100
AcDbEntity
100
AcDbLine
  8
0
 62
256
370
-1
  6
ByLayer
 10
14.9168402342133515
 20
8.1741874570534279
 30
0.0
 11
24.9168402342133533
 21
8.1741874570534279
 31
0.0
  0
LINE
  5
BE
100
AcDbEntity
100
AcDbLine
  8
0
 62
256
370
-1
  6
ByLayer
 10
18.4570000000000007
 20
13.0
 30
0.0
 11
18.4570000000000007
 21
12.8258125429465757
 31
0.0
  0
LINE
  5
BF
100
AcDbEntity
100
AcDbLine
  8
0
 62
256
370
-1
  6
ByLayer
 10
18.4570000000000007
 20
12.8258125429465757
 30
0.0
 11
18.4570000000000007
 21
12.7929017677631744
 31
0.0
  0
LINE
  5
C0
100
AcDbEntity
100
AcDbLine
  8
0
 62
256
370
-1
  6
ByLayer
 10
18.5
 20
13.0
 30
0.0
 11
18.5
 21
12.8258125429465757
 31
0.0
  0
LINE
  5
C1
100
AcDbEntity
100
AcDbLine
  8
0
 62
256
370
-1
  6
ByLayer
 10
18.5
 20
12.8258125429465757
 30
0.0
 11
18.5
 21
12.7929017677631744
 31
0.0
  0
LINE
  5
C2
100
AcDbEntity
100
AcDbLine
  8
0
 62
256
370
-1
  6
ByLayer
 10
18.4570000000000007
 20
12.7929017677631744
 30
0.0
 11
18.4570000000000007
 21
12.2979110371271911
 31
0.0
  0
LINE
  5
C3
100
AcDbEntity
100
AcDbLine
  8
0
 62
256
370
-1
  6
ByLayer
 10
18.5
 20
12.7929017677631744
 30
0.0
 11
18.5
 21
12.2979110371271911
 31
0.0
  0
LINE
  5
C4
100
AcDbEntity
100
AcDbLine
  8
0
 62
256
370
-1
  6
ByLayer
 10
18.4570000000000007
 20
12.2979110371271911
 30
0.0
 11
18.4570000000000007
 21
12.2370998539451428
 31
0.0
  0
LINE
  5
C5
100
AcDbEntity
100
AcDbLine
  8
0
 62
256
370
-1
  6
ByLayer
 10
18.5
 20
12.2979110371271911
 30
0.0
 11
18.5
 21
12.2370998539451428
 31
0.0
  0
LINE
  5
C6
100
AcDbEntity
100
AcDbLine
  8
0
 62
256
370
-1
  6
ByLayer
 10
18.4570000000000007
 20
12.2370998539451428
 30
0.0
 11
18.4570000000000007
 21
11.4962938740093286
 31
0.0
  0
LINE
  5
C7
100
AcDbEntity
100
AcDbLine
  8
0
 62
256
370
-1
  6
ByLayer
 10
16.3258125429465721
 20
11.4168402342133533
 30
0.0
 11
18.4570000000000007
 21
11.4168402342133533
 31
0.0
  0
LINE
  5
C8
100
AcDbEntity
100
AcDbLine
  8
0
 62
256
370
-1
  6
ByLayer
 10
18.4570000000000007
 20
11.4168402342133533
 30
0.0
 11
26.3258125429465721
 21
11.4168402342133533
 31
0.0
  0
LINE
  5
C9
100
AcDbEntity
100
AcDbLine
  8
0
 62
256
370
-1
  6
ByLayer
 10
18.4570000000000007
 20
11.4962938740093286
 30
0.0
 11
18.4570000000000007
 21
11.4168402342133533
 31
0.0
  0
LINE
  5
CA
100
AcDbEntity
100
AcDbLine
  8
0
 62
256
370
-1
  6
ByLayer
 10
18.5
 20
12.2370998539451428
 30
0.0
 11
18.5
 21
11.4962938740093286
 31
0.0
  0
LINE
  5
CB
100
AcDbEntity
100
AcDbLine
  8
0
 62
256
370
-1
  6
ByLayer
 10
18.5
 20
11.4962938740093286
 30
0.0
 11
18.5
 21
11.4168402342133533
 31
0.0
  0
LINE
  5
CC
100
AcDbEntity
100
AcDbLine
  8
0
 62
256
370
-1
  6
ByLayer
 10
18.4570000000000007
 20
11.4168402342133533
 30
0.0
 11
18.4570000000000007
 21
10.5429999999999993
 31
0.0
  0
LINE
  5
CD
100
AcDbEntity
100
AcDbLine
  8
0
 62
256
370
-1
  6
ByLayer
 10
18.5
 20
11.4168402342133533
 30
0.0
 11
18.5
 21
10.5429999999999993
 31
0.0
  0
LINE
  5
CE
100
AcDbEntity
100
AcDbLine
  8
0
 62
256
370
-1
  6
ByLayer
 10
18.5
 20
10.5429999999999993
 30
0.0
 11
18.5
 21
10.4570000000000007
 31
0.0
  0
LINE
  5
CF
100
AcDbEntity
100
AcDbLine
  8
0
 62
256
370
-1
  6
ByLayer
 10
18.4570000000000007
 20
10.5429999999999993
 30
0.0
 11
18.4570000000000007
 21
10.4570000000000007
 31
0.0
  0
LINE
  5
D0
100
AcDbEntity
100
AcDbLine
  8
0
 62
256
370
-1
  6
ByLayer
 10
18.4570000000000007
 20
10.4570000000000007
 30
0.0
 11
18.4570000000000007
 21
9.5831597657866485
 31
0.0
  0
LINE
  5
D1
100
AcDbEntity
100
AcDbLine
  8
0
 62
256
370
-1
  6
ByLayer
 10
18.5
 20
10.4570000000000007
 30
0.0
 11
18.5
 21
9.5831597657866485
 31
0.0
  0
LINE
  5
D2
100
AcDbEntity
100
AcDbLine
  8
0
 62
256
370
-1
  6
ByLayer
 10
18.5
 20
9.5831597657866485
 30
0.0
 11
18.5
 21
9.5037061259906714
 31
0.0
  0
LINE
  5
D3
100
AcDbEntity
100
AcDbLine
  8
0
 62
256
370
-1
  6
ByLayer
 10
18.4570000000000007
 20
9.5831597657866485
 30
0.0
 11
18.4570000000000007
 21
9.5037061259906714
 31
0.0
  0
LINE
  5
D4
100
AcDbEntity
100
AcDbLine
  8
0
 62
256
370
-1
  6
ByLayer
 10
18.4570000000000007
 20
9.5037061259906714
 30
0.0
 11
18.4570000000000007
 21
8.762900146054859
 31
0.0
  0
LINE
  5
D5
100
AcDbEntity
100
AcDbLine
  8
0
 62
256
370
-1
  6
ByLayer
 10
18.5
 20
9.5037061259906714
 30
0.0
 11
18.5
 21
8.762900146054859
 31
0.0
  0
LINE
  5
D6
100
AcDbEntity
100
AcDbLine
  8
0
 62
256
370
-1
  6
ByLayer
 10
18.4570000000000007
 20
8.762900146054859
 30
0.0
 11
18.4570000000000007
 21
8.7020889628728124
 31
0.0
  0
LINE
  5
D7
100
AcDbEntity
100
AcDbLine
  8
0
 62
256
370
-1
  6
ByLayer
 10
18.5
 20
8.762900146054859
 30
0.0
 11
18.5
 21
8.7020889628728124
 31
0.0
  0
LINE
  5
D8
100
AcDbEntity
100
AcDbLine
  8
0
 62
256
370
-1
  6
ByLayer
 10
18.4570000000000007
 20
8.7020889628728124
 30
0.0
 11
18.4570000000000007
 21
8.2070982322368291
 31
0.0
  0
LINE
  5
D9
100
AcDbEntity
100
AcDbLine
  8
0
 62
256
370
-1
  6
ByLayer
 10
18.5
 20
8.7020889628728124
 30
0.0
 11
18.5
 21
8.2070982322368291
 31
0.0
  0
LINE
  5
DA
100
AcDbEntity
100
AcDbLine
  8
0
 62
256
370
-1
  6
ByLayer
 10
18.5
 20
8.2070982322368291
 30
0.0
 11
18.5
 21
8.1741874570534279
 31
0.0
  0
LINE
  5
DB
100
AcDbEntity
100
AcDbLine
  8
0
 62
256
370
-1
  6
ByLayer
 10
18.5
 20
8.1741874570534279
 30
0.0
 11
18.5
 21
8.0
 31
0.0
  0
LINE
  5
DC
100
AcDbEntity
100
AcDbLine
  8
0
 62
256
370
-1
  6
ByLayer
 10
18.4570000000000007
 20
8.2070982322368291
 30
0.0
 11
18.4570000000000007
 21
8.1741874570534279
 31
0.0
  0
LINE
  5
DD
100
AcDbEntity
100
AcDbLine
  8
0
 62
256
370
-1
  6
ByLayer
 10
18.4570000000000007
 20
8.1741874570534279
 30
0.0
 11
18.4570000000000007
 21
8.0
 31
0.0
  0
LINE
  5
DE
100
AcDbEntity
100
AcDbLine
  8
Coupler
 62
256
370
-1
  6
DASHED2
 10
18.4570000000000007
 20
13.0
 30
0.0
 11
18.4570000000000007
 21
12.875
 31
0.0
  0
LINE
  5
DF
100
AcDbEntity
100
AcDbLine
  8
Coupler
 62
256
370
-1
  6
DASHED2
 10
18.5429999999999993
 20
13.0
 30
0.0
 11
18.5429999999999993
 21
12.875
 31
0.0
  0
ELLIPSE
  5
E0
100
AcDbEntity
100
AcDbEllipse
  8
Coupler
 62
256
370
-1
  6
ByLayer
 10
18.5
 20
12.8093571553548742
 30
0.0
 11
-0.0429999999999993
 21
0.0
 31
0.0
 40
0.3826834323651579
 41
0.0
 42
6.2831853071795862
  0
ELLIPSE
  5
E1
100
AcDbEntity
100
AcDbEllipse
  8
Coupler
 62
256
370
-1
  6
ByLayer
 10
18.5
 20
12.2675054455361661
 30
0.0
 11
-0.0429999999999993
 21
0.0
 31
0.0
 40
0.7071067811866418
 41
0.0
 42
6.2831853071795862
  0
ELLIPSE
  5
E2
100
AcDbEntity
100
AcDbEllipse
  8
Coupler
 62
256
370
-1
  6
ByLayer
 10
18.5
 20
11.4565670541113409
 30
0.0
 11
-0.0429999999999993
 21
0.0
 31
0.0
 40
0.9238795325113567
 41
0.0
 42
6.2831853071795862
  0
ELLIPSE
  5
E3
100
AcDbEntity
100
AcDbEllipse
  8
Coupler
 62
256
370
-1
  6
ByLayer
 10
18.5
 20
10.5
 30
0.0
 11
-0.0429999999999993
 21
0.0
 31
0.0
 40
1.0
 41
0.0
 42
6.2831853071795862
  0
ELLIPSE
  5
E4
100
AcDbEntity
100
AcDbEllipse
  8
Coupler
 62
256
370
-1
  6
ByLayer
 10
18.5
 20
9.5434329458886609
 30
0.0
 11
-0.0429999999999993
 21
0.0
 31
0.0
 40
0.9238795325113567
 41
0.0
 42
6.2831853071795862
  0
ELLIPSE
  5
E5
100
AcDbEntity
100
AcDbEllipse
  8
Coupler
 62
256
370
-1
  6
ByLayer
 10
18.5
 20
8.7324945544638357
 30
0.0
 11
-0.0429999999999993
 21
0.0
 31
0.0
 40
0.7071067811866004
 41
0.0
 42
6.2831853071795862
  0
ELLIPSE
  5
E6
100
AcDbEntity
100
AcDbEllipse
  8
Coupler
 62
256
370
-1
  6
ByLayer
 10
18.5
 20
8.1906428446451294
 30
0.0
 11
-0.0429999999999993
 21
0.0
 31
0.0
 40
0.3826834323651166
 41
0.0
 42
6.2831853071795862
  0
LINE
  5
E7
100
AcDbEntity
100
AcDbLine
  8
Coupler
 62
256
370
-1
  6
ByLayer
 10
18.4570000000000007
 20
8.125
 30
0.0
 11
18.4570000000000007
 21
8.0
 31
0.0
  0
LINE
  5
E8
100
AcDbEntity
100
AcDbLine
  8
Coupler
 62
256
370
-1
  6
ByLayer
 10
18.5429999999999993
 20
8.125
 30
0.0
 11
18.5429999999999993
 21
8.0
 31
0.0
  0
LINE
  5
E9
100
AcDbEntity
100
AcDbLine
  8
Coupler
 62
256
370
-1
  6
DASHED2
 10
19.4570000000000007
 20
13.0
 30
0.0
 11
19.4570000000000007
 21
12.875
 31
0.0
  0
LINE
  5
EA
100
AcDbEntity
100
AcDbLine
  8
Coupler
 62
256
370
-1
  6
DASHED2
 10
19.5429999999999993
 20
13.0
 30
0.0
 11
19.5429999999999993
 21
12.875
 31
0.0
  0
ELLIPSE
  5
EB
100
AcDbEntity
100
AcDbEllipse
  8
Coupler
 62
256
370
-1
  6
ByLayer
 10
19.5
 20
12.8093571553548742
 30
0.0
 11
-0.0429999999999993
 21
0.0
 31
0.0
 40
0.3826834323651579
 41
0.0
 42
6.2831853071795862
  0
ELLIPSE
  5
EC
100
AcDbEntity
100
AcDbEllipse
  8
Coupler
 62
256
370
-1
  6
ByLayer
 10
19.5
 20
12.2675054455361661
 30
0.0
 11
-0.0429999999999993
 21
0.0
 31
0.0
 40
0.7071067811866418
 41
0.0
 42
6.2831853071795862
  0
ELLIPSE
  5
ED
100
AcDbEntity
100
AcDbEllipse
  8
Coupler
 62
256
370
-1
  6
ByLayer
 10
19.5
 20
11.4565670541113409
 30
0.0
 11
-0.0429999999999993
 21
0.0
 31
0.0
 40
0.9238795325113567
 41
0.0
 42
6.2831853071795862
  0
ELLIPSE
  5
EE
100
AcDbEntity
100
AcDbEllipse
  8
Coupler
 62
256
370
-1
  6
ByLayer
 10
19.5
 20
10.5
 30
0.0
 11
-0.0429999999999993
 21
0.0
 31
0.0
 40
1.0
 41
0.0
 42
6.2831853071795862
  0
ELLIPSE
  5
EF
100
AcDbEntity
100
AcDbEllipse
  8
Coupler
 62
256
370
-1
  6
ByLayer
 10
19.5
 20
9.5434329458886609
 30
0.0
 11
-0.0429999999999993
 21
0.0
 31
0.0
 40
0.9238795325113567
 41
0.0
 42
6.2831853071795862
  0
ELLIPSE
  5
F0
100
AcDbEntity
100
AcDbEllipse
  8
Coupler
 62
256
370
-1
  6
ByLayer
 10
19.5
 20
8.7324945544638357
 30
0.0
 11
-0.0429999999999993
 21
0.0
 31
0.0
 40
0.7071067811866004
 41
0.0
 42
6.2831853071795862
  0
ELLIPSE
  5
F1
100
AcDbEntity
100
AcDbEllipse
  8
Coupler
 62
256
370
-1
  6
ByLayer
 10
19.5
 20
8.1906428446451294
 30
0.0
 11
-0.0429999999999993
 21
0.0
 31
0.0
 40
0.3826834323651166
 41
0.0
 42
6.2831853071795862
  0
LINE
  5
F2
100
AcDbEntity
100
AcDbLine
  8
Coupler
 62
256
370
-1
  6
ByLayer
 10
19.4570000000000007
 20
8.125
 30
0.0
 11
19.4570000000000007
 21
8.0
 31
0.0
  0
LINE
  5
F3
100
AcDbEntity
100
AcDbLine
  8
Coupler
 62
256
370
-1
  6
ByLayer
 10
19.5429999999999993
 20
8.125
 30
0.0
 11
19.5429999999999993
 21
8.0
 31
0.0
  0
LINE
  5
F4
100
AcDbEntity
100
AcDbLine
  8
0
 62
256
370
-1
  6
ByLayer
 10
1.0
 20
8.0
 30
0.0
 11
2.0000000000000004
 21
8.0
 31
0.0
  0
LINE
  5
F5
100
AcDbEntity
100
AcDbLine
  8
0
 62
256
370
-1
  6
ByLayer
 10
1.0
 20
1.3
 30
0.0
 11
2.0
 21
1.3
 31
0.0
  0
LINE
  5
F6
100
AcDbEntity
100
AcDbLine
  8
0
 62
256
370
-1
  6
ByLayer
 10
2.0
 20
1.3
 30
0.0
 11
2.0000000000000004
 21
8.0
 31
0.0
  0
CIRCLE
  5
F7
100
AcDbEntity
100
AcDbCircle
  8
Module
 62
256
370
-1
  6
ByLayer
 10
3.5
 20
13.5
 30
0.0
 40
2.625
  0
CIRCLE
  5
F8
100
AcDbEntity
100
AcDbCircle
  8
Module
 62
256
370
-1
  6
ByLayer
 10
3.5
 20
13.5
 30
0.0
 40
2.5
  0
LINE
  5
F9
100
AcDbEntity
100
AcDbLine
  8
Module
 62
256
370
-1
  6
ByLayer
 10
6.0004534348577421
 20
13.9412935985486861
 30
0.0
 11
6.0963966522650495
 21
13.8864575320870927
 31
0.0
  0
LINE
  5
FA
100
AcDbEntity
100
AcDbLine
  8
Module
 62
256
370
-1
  6
ByLayer
 10
5.9789934994359655
 20
14.0491799793930561
 30
0.0
 11
6.0466486201509344
 21
14.1365577785899283
 31
0.0
  0
LINE
  5
FB
100
AcDbEntity
100
AcDbLine
  8
Module
 62
256
370
-1
  6
ByLayer
 10
5.9406397863867788
 20
14.0415509515326278
 30
0.0
 11
5.9789934994359655
 21
14.0491799793930561
 31
0.0
  0
LINE
  5
FC
100
AcDbEntity
100
AcDbLine
  8
Module
 62
256
370
-1
  6
ByLayer
 10
5.962099721808551
 20
13.9336645706882845
 30
0.0
 11
6.0004534348577421
 21
13.9412935985486861
 31
0.0
  0
LINE
  5
FD
100
AcDbEntity
100
AcDbLine
  8
Module
 62
256
370
-1
  6
ByLayer
 10
5.6412420014892595
 20
14.8645842264478212
 30
0.0
 11
5.7508668304660739
 21
14.8506381867501034
 31
0.0
  0
LINE
  5
FE
100
AcDbEntity
100
AcDbLine
  8
Module
 62
256
370
-1
  6
ByLayer
 10
5.580129275857094
 20
14.9560458838011154
 30
0.0
 11
5.609196421046069
 21
15.0626629378872643
 31
0.0
  0
LINE
  5
FF
100
AcDbEntity
100
AcDbLine
  8
Module
 62
256
370
-1
  6
ByLayer
 10
5.547614567942377
 20
14.9343202505543005
 30
0.0
 11
5.580129275857094
 21
14.9560458838011154
 31
0.0
  0
LINE
  5
100
100
AcDbEntity
100
AcDbLine
  8
Module
 62
256
370
-1
  6
ByLayer
 10
5.6087272935745283
 20
14.8428585932010275
 30
0.0
 11
5.6412420014892595
 21
14.8645842264478212
 31
0.0
  0
LINE
  5
101
100
AcDbEntity
100
AcDbLine
  8
Module
 62
256
370
-1
  6
ByLayer
 10
4.9560458838011145
 20
15.5801292758570948
 30
0.0
 11
5.0626629378872661
 21
15.6091964210460681
 31
0.0
  0
LINE
  5
102
100
AcDbEntity
100
AcDbLine
  8
Module
 62
256
370
-1
  6
ByLayer
 10
4.864584226447823
 20
15.6412420014892586
 30
0.0
 11
4.8506381867501069
 21
15.7508668304660731
 31
0.0
  0
LINE
  5
103
100
AcDbEntity
100
AcDbLine
  8
Module
 62
256
370
-1
  6
ByLayer
 10
4.8428585932010284
 20
15.6087272935745283
 30
0.0
 11
4.864584226447823
 21
15.6412420014892586
 31
0.0
  0
LINE
  5
104
100
AcDbEntity
100
AcDbLine
  8
Module
 62
256
370
-1
  6
ByLayer
 10
4.9343202505543005
 20
15.547614567942377
 30
0.0
 11
4.9560458838011145
 21
15.5801292758570948
 31
0.0
  0
LINE
  5
105
100
AcDbEntity
100
AcDbLine
  8
Module
 62
256
370
-1
  6
ByLayer
 10
4.0491799793930543
 20
15.9789934994359655
 30
0.0
 11
4.1365577785899283
 21
16.0466486201509326
 31
0.0
  0
LINE
  5
106
100
AcDbEntity
100
AcDbLine
  8
Module
 62
256
370
-1
  6
ByLayer
 10
3.9412935985486861
 20
16.0004534348577394
 30
0.0
 11
3.8864575320870935
 21
16.0963966522650495
 31
0.0
  0
LINE
  5
107
100
AcDbEntity
100
AcDbLine
  8
Module
 62
256
370
-1
  6
ByLayer
 10
3.933664570688284
 20
15.962099721808551
 30
0.0
 11
3.9412935985486861
 21
16.0004534348577394
 31
0.0
  0
LINE
  5
108
100
AcDbEntity
100
AcDbLine
  8
Module
 62
256
370
-1
  6
ByLayer
 10
4.0415509515326296
 20
15.9406397863867788
 30
0.0
 11
4.0491799793930543
 21
15.9789934994359655
 31
0.0
  0
LINE
  5
109
100
AcDbEntity
100
AcDbLine
  8
Module
 62
256
370
-1
  6
ByLayer
 10
3.0587064014513139
 20
16.000453434857743
 30
0.0
 11
3.1135424679129073
 21
16.0963966522650495
 31
0.0
  0
LINE
  5
10A
100
AcDbEntity
100
AcDbLine
  8
Module
 62
256
370
-1
  6
ByLayer
 10
2.9508200206069444
 20
15.9789934994359655
 30
0.0
 11
2.8634422214100721
 21
16.0466486201509326
 31
0.0
  0
LINE
  5
10B
100
AcDbEntity
100
AcDbLine
  8
Module
 62
256
370
-1
  6
ByLayer
 10
2.9584490484673709
 20
15.9406397863867788
 30
0.0
 11
2.9508200206069444
 21
15.9789934994359655
 31
0.0
  0
LINE
  5
10C
100
AcDbEntity
100
AcDbLine
  8
Module
 62
256
370
-1
  6
ByLayer
 10
3.0663354293117164
 20
15.962099721808551
 30
0.0
 11
3.0587064014513139
 21
16.000453434857743
 31
0.0
  0
LINE
  5
10D
100
AcDbEntity
100
AcDbLine
  8
Module
 62
256
370
-1
  6
ByLayer
 10
2.1354157735521779
 20
15.6412420014892604
 30
0.0
 11
2.1493618132498948
 21
15.7508668304660731
 31
0.0
  0
LINE
  5
10E
100
AcDbEntity
100
AcDbLine
  8
Module
 62
256
370
-1
  6
ByLayer
 10
2.0439541161988855
 20
15.5801292758570948
 30
0.0
 11
1.9373370621127348
 21
15.6091964210460681
 31
0.0
  0
LINE
  5
10F
100
AcDbEntity
100
AcDbLine
  8
Module
 62
256
370
-1
  6
ByLayer
 10
2.0656797494457004
 20
15.547614567942377
 30
0.0
 11
2.0439541161988855
 21
15.5801292758570948
 31
0.0
  0
LINE
  5
110
100
AcDbEntity
100
AcDbLine
  8
Module
 62
256
370
-1
  6
ByLayer
 10
2.1571414067989716
 20
15.6087272935745283
 30
0.0
 11
2.1354157735521779
 21
15.6412420014892604
 31
0.0
  0
LINE
  5
111
100
AcDbEntity
100
AcDbLine
  8
Module
 62
256
370
-1
  6
ByLayer
 10
1.4198707241429052
 20
14.9560458838011172
 30
0.0
 11
1.3908035789539328
 21
15.0626629378872678
 31
0.0
  0
LINE
  5
112
100
AcDbEntity
100
AcDbLine
  8
Module
 62
256
370
-1
  6
ByLayer
 10
1.3587579985107405
 20
14.864584226447823
 30
0.0
 11
1.2491331695339278
 21
14.8506381867501087
 31
0.0
  0
LINE
  5
113
100
AcDbEntity
100
AcDbLine
  8
Module
 62
256
370
-1
  6
ByLayer
 10
1.3912727064254717
 20
14.8428585932010293
 30
0.0
 11
1.3587579985107405
 21
14.864584226447823
 31
0.0
  0
LINE
  5
114
100
AcDbEntity
100
AcDbLine
  8
Module
 62
256
370
-1
  6
ByLayer
 10
1.452385432057623
 20
14.9343202505543005
 30
0.0
 11
1.4198707241429052
 21
14.9560458838011172
 31
0.0
  0
LINE
  5
115
100
AcDbEntity
100
AcDbLine
  8
Module
 62
256
370
-1
  6
ByLayer
 10
1.0210065005640345
 20
14.0491799793930525
 30
0.0
 11
0.9533513798490647
 21
14.1365577785899266
 31
0.0
  0
LINE
  5
116
100
AcDbEntity
100
AcDbLine
  8
Module
 62
256
370
-1
  6
ByLayer
 10
0.9995465651422579
 20
13.9412935985486861
 30
0.0
 11
0.9036033477349505
 21
13.8864575320870944
 31
0.0
  0
LINE
  5
117
100
AcDbEntity
100
AcDbLine
  8
Module
 62
256
370
-1
  6
ByLayer
 10
1.0379002781914481
 20
13.9336645706882862
 30
0.0
 11
0.9995465651422579
 21
13.9412935985486861
 31
0.0
  0
LINE
  5
118
100
AcDbEntity
100
AcDbLine
  8
Module
 62
256
370
-1
  6
ByLayer
 10
1.0593602136132212
 20
14.0415509515326313
 30
0.0
 11
1.0210065005640345
 21
14.0491799793930525
 31
0.0
  0
LINE
  5
119
100
AcDbEntity
100
AcDbLine
  8
Module
 62
256
370
-1
  6
ByLayer
 10
0.9995465651422579
 20
13.0587064014513139
 30
0.0
 11
0.9036033477349479
 21
13.113542467912918
 31
0.0
  0
LINE
  5
11A
100
AcDbEntity
100
AcDbLine
  8
Module
 62
256
370
-1
  6
ByLayer
 10
1.0210065005640345
 20
12.9508200206069439
 30
0.0
 11
0.9533513798490647
 21
12.8634422214100734
 31
0.0
  0
LINE
  5
11B
100
AcDbEntity
100
AcDbLine
  8
Module
 62
256
370
-1
  6
ByLayer
 10
1.0593602136132212
 20
12.9584490484673704
 30
0.0
 11
1.0210065005640345
 21
12.9508200206069439
 31
0.0
  0
LINE
  5
11C
100
AcDbEntity
100
AcDbLine
  8
Module
 62
256
370
-1
  6
ByLayer
 10
1.037900278191449
 20
13.0663354293117155
 30
0.0
 11
0.9995465651422579
 21
13.0587064014513139
 31
0.0
  0
LINE
  5
11D
100
AcDbEntity
100
AcDbLine
  8
Module
 62
256
370
-1
  6
ByLayer
 10
1.3587579985107388
 20
12.1354157735521788
 30
0.0
 11
1.2491331695339252
 21
12.1493618132498966
 31
0.0
  0
LINE
  5
11E
100
AcDbEntity
100
AcDbLine
  8
Module
 62
256
370
-1
  6
ByLayer
 10
1.4198707241429043
 20
12.0439541161988863
 30
0.0
 11
1.3908035789539293
 21
11.9373370621127375
 31
0.0
  0
LINE
  5
11F
100
AcDbEntity
100
AcDbLine
  8
Module
 62
256
370
-1
  6
ByLayer
 10
1.4523854320576222
 20
12.0656797494456995
 30
0.0
 11
1.4198707241429043
 21
12.0439541161988863
 31
0.0
  0
LINE
  5
120
100
AcDbEntity
100
AcDbLine
  8
Module
 62
256
370
-1
  6
ByLayer
 10
1.39127270642547
 20
12.1571414067989743
 30
0.0
 11
1.3587579985107388
 21
12.1354157735521788
 31
0.0
  0
LINE
  5
121
100
AcDbEntity
100
AcDbLine
  8
Module
 62
256
370
-1
  6
ByLayer
 10
2.0439541161988841
 20
11.4198707241429069
 30
0.0
 11
1.9373370621127322
 21
11.3908035789539319
 31
0.0
  0
LINE
  5
122
100
AcDbEntity
100
AcDbLine
  8
Module
 62
256
370
-1
  6
ByLayer
 10
2.1354157735521766
 20
11.3587579985107414
 30
0.0
 11
2.1493618132498913
 21
11.2491331695339269
 31
0.0
  0
LINE
  5
123
100
AcDbEntity
100
AcDbLine
  8
Module
 62
256
370
-1
  6
ByLayer
 10
2.1571414067989694
 20
11.3912727064254735
 30
0.0
 11
2.1354157735521766
 21
11.3587579985107414
 31
0.0
  0
LINE
  5
124
100
AcDbEntity
100
AcDbLine
  8
Module
 62
256
370
-1
  6
ByLayer
 10
2.0656797494456978
 20
11.452385432057623
 30
0.0
 11
2.0439541161988841
 21
11.4198707241429069
 31
0.0
  0
LINE
  5
125
100
AcDbEntity
100
AcDbLine
  8
Module
 62
256
370
-1
  6
ByLayer
 10
2.9508200206069395
 20
11.0210065005640363
 30
0.0
 11
2.8634422214100681
 21
10.9533513798490674
 31
0.0
  0
LINE
  5
126
100
AcDbEntity
100
AcDbLine
  8
Module
 62
256
370
-1
  6
ByLayer
 10
3.0587064014513121
 20
10.999546565142257
 30
0.0
 11
3.1135424679129056
 21
10.9036033477349505
 31
0.0
  0
LINE
  5
127
100
AcDbEntity
100
AcDbLine
  8
Module
 62
256
370
-1
  6
ByLayer
 10
3.0663354293117147
 20
11.037900278191449
 30
0.0
 11
3.0587064014513121
 21
10.999546565142257
 31
0.0
  0
LINE
  5
128
100
AcDbEntity
100
AcDbLine
  8
Module
 62
256
370
-1
  6
ByLayer
 10
2.9584490484673718
 20
11.0593602136132212
 30
0.0
 11
2.9508200206069395
 21
11.0210065005640363
 31
0.0
  0
LINE
  5
129
100
AcDbEntity
100
AcDbLine
  8
Module
 62
256
370
-1
  6
ByLayer
 10
3.9412935985486888
 20
10.9995465651422588
 30
0.0
 11
3.8864575320870953
 21
10.9036033477349505
 31
0.0
  0
LINE
  5
12A
100
AcDbEntity
100
AcDbLine
  8
Module
 62
256
370
-1
  6
ByLayer
 10
4.0491799793930543
 20
11.0210065005640345
 30
0.0
 11
4.1365577785899283
 21
10.9533513798490656
 31
0.0
  0
LINE
  5
12B
100
AcDbEntity
100
AcDbLine
  8
Module
 62
256
370
-1
  6
ByLayer
 10
4.0415509515326296
 20
11.0593602136132212
 30
0.0
 11
4.0491799793930543
 21
11.0210065005640345
 31
0.0
  0
LINE
  5
12C
100
AcDbEntity
100
AcDbLine
  8
Module
 62
256
370
-1
  6
ByLayer
 10
3.9336645706882818
 20
11.037900278191449
 30
0.0
 11
3.9412935985486888
 21
10.9995465651422588
 31
0.0
  0
LINE
  5
12D
100
AcDbEntity
100
AcDbLine
  8
Module
 62
256
370
-1
  6
ByLayer
 10
4.8645842264478203
 20
11.3587579985107396
 30
0.0
 11
4.8506381867501052
 21
11.2491331695339269
 31
0.0
  0
LINE
  5
12E
100
AcDbEntity
100
AcDbLine
  8
Module
 62
256
370
-1
  6
ByLayer
 10
4.9560458838011154
 20
11.4198707241429052
 30
0.0
 11
5.0626629378872661
 21
11.3908035789539319
 31
0.0
  0
LINE
  5
12F
100
AcDbEntity
100
AcDbLine
  8
Module
 62
256
370
-1
  6
ByLayer
 10
4.9343202505543005
 20
11.452385432057623
 30
0.0
 11
4.9560458838011154
 21
11.4198707241429052
 31
0.0
  0
LINE
  5
130
100
AcDbEntity
100
AcDbLine
  8
Module
 62
256
370
-1
  6
ByLayer
 10
4.8428585932010311
 20
11.3912727064254753
 30
0.0
 11
4.8645842264478203
 21
11.3587579985107396
 31
0.0
  0
LINE
  5
131
100
AcDbEntity
100
AcDbLine
  8
Module
 62
256
370
-1
  6
ByLayer
 10
5.580129275857094
 20
12.0439541161988828
 30
0.0
 11
5.6091964210460672
 21
11.9373370621127322
 31
0.0
  0
LINE
  5
132
100
AcDbEntity
100
AcDbLine
  8
Module
 62
256
370
-1
  6
ByLayer
 10
5.6412420014892586
 20
12.1354157735521753
 30
0.0
 11
5.7508668304660731
 21
12.1493618132498931
 31
0.0
  0
LINE
  5
133
100
AcDbEntity
100
AcDbLine
  8
Module
 62
256
370
-1
  6
ByLayer
 10
5.6087272935745274
 20
12.1571414067989707
 30
0.0
 11
5.6412420014892586
 21
12.1354157735521753
 31
0.0
  0
LINE
  5
134
100
AcDbEntity
100
AcDbLine
  8
Module
 62
256
370
-1
  6
ByLayer
 10
5.5476145679423761
 20
12.0656797494456978
 30
0.0
 11
5.580129275857094
 21
12.0439541161988828
 31
0.0
  0
LINE
  5
135
100
AcDbEntity
100
AcDbLine
  8
Module
 62
256
370
-1
  6
ByLayer
 10
5.9789934994359655
 20
12.9508200206069439
 30
0.0
 11
6.0466486201509335
 21
12.8634422214100717
 31
0.0
  0
LINE
  5
136
100
AcDbEntity
100
AcDbLine
  8
Module
 62
256
370
-1
  6
ByLayer
 10
6.0004534348577421
 20
13.0587064014513121
 30
0.0
 11
6.0963966522650486
 21
13.1135424679129056
 31
0.0
  0
LINE
  5
137
100
AcDbEntity
100
AcDbLine
  8
Module
 62
256
370
-1
  6
ByLayer
 10
5.9620997218085501
 20
13.0663354293117138
 30
0.0
 11
6.0004534348577421
 21
13.0587064014513121
 31
0.0
  0
LINE
  5
138
100
AcDbEntity
100
AcDbLine
  8
Module
 62
256
370
-1
  6
ByLayer
 10
5.940639786386777
 20
12.9584490484673687
 30
0.0
 11
5.9789934994359655
 21
12.9508200206069439
 31
0.0
  0
LINE
  5
139
100
AcDbEntity
100
AcDbLine
  8
1
 62
256
370
-1
  6
ByLayer
 10
-4.625
 20
5.9249999999999998
 30
0.0
 11
19.0
 21
5.9249999999999998
 31
0.0
  0
LINE
  5
13A
100
AcDbEntity
100
AcDbLine
  8
1
 62
256
370
-1
  6
ByLayer
 10
-4.625
 20
3.3250000000000002
 30
0.0
 11
19.0
 21
3.3250000000000002
 31
0.0
  0
LINE
  5
13B
100
AcDbEntity
100
AcDbLine
  8
1
 62
256
370
-1
  6
ByLayer
 10
-3.2999999999999998
 20
2.0
 30
0.0
 11
-3.2999999999999989
 21
12.0
 31
0.0
  0
LINE
  5
13C
100
AcDbEntity
100
AcDbLine
  8
1
 62
256
370
-1
  6
ByLayer
 10
-0.6999999999999995
 20
1.9999999999999998
 30
0.0
 11
-0.6999999999999988
 21
12.0
 31
0.0
  0
LINE
  5
13D
100
AcDbEntity
100
AcDbLine
  8
1
 62
256
370
-1
  6
ByLayer
 10
-1.9999999999999993
 20
4.625
 30
0.0
 11
-3.8561553006146867
 21
6.4811553006146871
 31
0.0
  0
LINE
  5
13E
100
AcDbEntity
100
AcDbLine
  8
1
 62
256
370
-1
  6
ByLayer
 10
-0.1744993439588829
 20
6.5113118392231577
 30
0.0
 11
10.0
 21
6.5113118392231577
 31
0.0
  0
LINE
  5
13F
100
AcDbEntity
100
AcDbLine
  8
1
 62
256
370
-1
  6
ByLayer
 10
-0.1136881607768403
 20
6.4505006560411156
 30
0.0
 11
10.0
 21
6.4505006560411156
 31
0.0
  0
LINE
  5
140
100
AcDbEntity
100
AcDbLine
  8
1
 62
256
370
-1
  6
ByLayer
 10
-0.1136881607768412
 20
2.7994993439588836
 30
0.0
 11
10.0
 21
2.7994993439588836
 31
0.0
  0
LINE
  5
141
100
AcDbEntity
100
AcDbLine
  8
1
 62
256
370
-1
  6
ByLayer
 10
-0.1744993439588838
 20
2.738688160776841
 30
0.0
 11
10.0
 21
2.738688160776841
 31
0.0
  0
LINE
  5
142
100
AcDbEntity
100
AcDbLine
  8
1
 62
256
370
-1
  6
ByLayer
 10
10.0
 20
6.5113118392231577
 30
0.0
 11
10.0
 21
6.4505006560411156
 31
0.0
  0
LINE
  5
143
100
AcDbEntity
100
AcDbLine
  8
1
 62
256
370
-1
  6
ByLayer
 10
10.0
 20
2.7994993439588836
 30
0.0
 11
10.0
 21
2.738688160776841
 31
0.0
  0
LINE
  5
144
100
AcDbEntity
100
AcDbLine
  8
1
 62
256
370
-1
  6
ByLayer
 10
9.9570000000000007
 20
6.5113118392231577
 30
0.0
 11
9.9570000000000007
 21
6.4505006560411156
 31
0.0
  0
ELLIPSE
  5
145
100
AcDbEntity
100
AcDbEllipse
  8
Module
 62
256
370
-1
  6
ByLayer
 10
10.0
 20
6.4809062476321362
 30
0.0
 11
-0.0429999999999993
 21
0.0
 31
0.0
 40
0.7071067811865591
 41
0.0
 42
6.2831853071795862
  0
LINE
  5
146
100
AcDbEntity
100
AcDbLine
  8
1
 62
256
370
-1
  6
ByLayer
 10
9.9570000000000007
 20
2.7994993439588836
 30
0.0
 11
9.9570000000000007
 21
2.738688160776841
 31
0.0
  0
ELLIPSE
  5
147
100
AcDbEntity
100
AcDbEllipse
  8
Module
 62
256
370
-1
  6
ByLayer
 10
10.0
 20
2.769093752367862
 30
0.0
 11
-0.0429999999999993
 21
0.0
 31
0.0
 40
0.7071067811865591
 41
0.0
 42
6.2831853071795862
  0
MTEXT
  5
148
100
AcDbEntity
100
AcDbMText
  8
Section
 62
256
370
-1
  6
ByLayer
 10
2.9000000000000004
 20
12.5
 30
0.0
 40
0.5
 41
100.0
 71
1
 72
2
  1
A-A
  7
normallatin1
 50
0.0
 73
0
 44
1.0
  0
MTEXT
  5
149
100
AcDbEntity
100
AcDbMText
  8
Module
 62
256
370
-1
  6
ByLayer
 10
5.4000000000000004
 20
4.7999999999999998
 30
0.0
 40
0.5
 41
100.0
 71
1
 72
2
  1
Module
  7
normallatin1
 50
0.0
 73
0
 44
1.0
  0
LINE
  5
14A
100
AcDbEntity
100
AcDbLine
  8
Boundary
 62
256
370
-1
  6
ByLayer
 10
22.0
 20
0.0
 30
0.0
 11
22.0
 21
17.0
 31
0.0
  0
LINE
  5
14B
100
AcDbEntity
100
AcDbLine
  8
Boundary
 62
256
370
-1
  6
ByLayer
 10
22.0
 20
17.0
 30
0.0
 11
0.0
 21
17.0
 31
0.0
  0
LINE
  5
14C
100
AcDbEntity
100
AcDbLine
  8
Boundary
 62
256
370
-1
  6
ByLayer
 10
0.0
 20
17.0
 30
0.0
 11
0.0
 21
0.0
 31
0.0
  0
LINE
  5
14D
100
AcDbEntity
100
AcDbLine
  8
Boundary
 62
256
370
-1
  6
ByLayer
 10
0.0
 20
0.0
 30
0.0
 11
22.0
 21
0.0
 31
0.0
  0
LINE
  5
14E
100
AcDbEntity
100
AcDbLine
  8
1
 62
256
370
-1
  6
ByLayer
 10
0.515625
 20
7.25
 30
0.0
 11
0.515625
 21
2.0
 31
0.0
  0
LINE
  5
14F
100
AcDbEntity
100
AcDbLine
  8
1
 62
256
370
-1
  6
ByLayer
 10
19.484375
 20
1.9999999999999998
 30
0.0
 11
19.484375
 21
7.25
 31
0.0
  0
LINE
  5
150
100
AcDbEntity
100
AcDbLine
  8
1
 62
256
370
-1
  6
ByLayer
 10
17.5
 20
13.0
 30
0.0
 11
17.5
 21
8.0
 31
0.0
  0
LINE
  5
151
100
AcDbEntity
100
AcDbLine
  8
1
 62
256
370
-1
  6
ByLayer
 10
20.5
 20
8.0
 30
0.0
 11
20.5
 21
13.0
 31
0.0
  0
DIMENSION
  5
152
100
AcDbEntity
  8
Dimension
 62
256
370
-1
  6
ByLayer
100
AcDbDimension
 10
18.984375
 20
0.5999999999999994
 30
0.0
 11
10.0
 21
0.7999999999999994
 31
0.0
 70
0
 71
5
 72
0
 41
1.0
 42
0.0
  1
17.969\S+.01^\~-.01;
  3
Standard
100
AcDbAlignedDimension
 13
1.015625
 23
2.0
 33
0.0
 14
18.984375
 24
2.0
 34
0.0
 50
0.0
100
AcDbRotatedDimension
  0
LINE
  5
153
100
AcDbEntity
100
AcDbLine
  8
1
 62
256
370
-1
  6
ByLayer
 10
20.0
 20
13.5
 30
0.0
 11
18.0
 21
13.5
 31
0.0
  0
LINE
  5
154
100
AcDbEntity
100
AcDbLine
  8
1
 62
256
370
-1
  6
ByLayer
 10
17.984375
 20
1.5
 30
0.0
 11
18.984375
 21
1.5
 31
0.0
  0
LINE
  5
155
100
AcDbEntity
100
AcDbLine
  8
Dimension
 62
256
370
-1
  6
CENTER
 10
18.5000000000000036
 20
1.5
 30
0.0
 11
18.5000000000000036
 21
13.5
 31
0.0
  0
LINE
  5
156
100
AcDbEntity
100
AcDbLine
  8
1
 62
256
370
-1
  6
ByLayer
 10
18.2500000000000036
 20
1.5
 30
0.0
 11
18.2500000000000036
 21
13.5
 31
0.0
  0
LINE
  5
157
100
AcDbEntity
100
AcDbLine
  8
1
 62
256
370
-1
  6
ByLayer
 10
18.7500000000000036
 20
1.5
 30
0.0
 11
18.7500000000000036
 21
13.5
 31
0.0
  0
LINE
  5
158
100
AcDbEntity
100
AcDbLine
  8
1
 62
256
370
-1
  6
ByLayer
 10
19.7500000000000036
 20
1.4999999999999996
 30
0.0
 11
19.7500000000000036
 21
13.5
 31
0.0
  0
LINE
  5
159
100
AcDbEntity
100
AcDbLine
  8
1
 62
256
370
-1
  6
ByLayer
 10
18.0
 20
7.5
 30
0.0
 11
20.0
 21
7.5
 31
0.0
  0
LINE
  5
15A
100
AcDbEntity
100
AcDbLine
  8
1
 62
256
370
-1
  6
ByLayer
 10
16.6843749999999993
 20
7.5865
 30
0.0
 11
3.3156249999999998
 21
7.5865000000000036
 31
0.0
  0
LINE
  5
15B
100
AcDbEntity
100
AcDbLine
  8
1
 62
256
370
-1
  6
ByLayer
 10
3.3156249999999998
 20
1.6634999999999964
 30
0.0
 11
16.6843749999999993
 21
1.6634999999999995
 31
0.0
  0
LINE
  5
15C
100
AcDbEntity
100
AcDbLine
  8
1
 62
256
370
-1
  6
ByLayer
 10
9.75
 20
1.663499999999998
 30
0.0
 11
9.75
 21
7.5865000000000018
 31
0.0
  0
LINE
  5
15D
100
AcDbEntity
100
AcDbLine
  8
1
 62
256
370
-1
  6
ByLayer
 10
10.25
 20
1.663499999999998
 30
0.0
 11
10.25
 21
7.5865000000000018
 31
0.0
  0
LINE
  5
15E
100
AcDbEntity
100
AcDbLine
  8
1
 62
256
370
-1
  6
ByLayer
 10
0.3750000000000001
 20
16.625
 30
0.0
 11
12.125
 21
16.625
 31
0.0
  0
LINE
  5
15F
100
AcDbEntity
100
AcDbLine
  8
1
 62
256
370
-1
  6
ByLayer
 10
12.125
 20
10.375
 30
0.0
 11
12.125
 21
16.625
 31
0.0
  0
LINE
  5
160
100
AcDbEntity
100
AcDbLine
  8
1
 62
256
370
-1
  6
ByLayer
 10
0.3749999999999999
 20
10.375
 30
0.0
 11
0.3750000000000001
 21
16.625
 31
0.0
  0
LINE
  5
161
100
AcDbEntity
100
AcDbLine
  8
1
 62
256
370
-1
  6
ByLayer
 10
0.3749999999999999
 20
10.375
 30
0.0
 11
12.125
 21
10.375
 31
0.0
  0
LINE
  5
162
100
AcDbEntity
100
AcDbLine
  8
Dimension
 62
256
370
-1
  6
CENTER
 10
18.2500000000000036
 20
12.8093571553548742
 30
0.0
 11
19.7500000000000036
 21
12.8093571553548742
 31
0.0
  0
LINE
  5
163
100
AcDbEntity
100
AcDbLine
  8
Dimension
 62
256
370
-1
  6
CENTER
 10
18.2500000000000036
 20
12.2675054455361661
 30
0.0
 11
19.7500000000000036
 21
12.2675054455361661
 31
0.0
  0
LINE
  5
164
100
AcDbEntity
100
AcDbLine
  8
Dimension
 62
256
370
-1
  6
CENTER
 10
18.2500000000000036
 20
11.4565670541113409
 30
0.0
 11
19.7500000000000036
 21
11.4565670541113409
 31
0.0
  0
LINE
  5
165
100
AcDbEntity
100
AcDbLine
  8
Dimension
 62
256
370
-1
  6
CENTER
 10
18.2500000000000036
 20
9.5434329458886609
 30
0.0
 11
19.7500000000000036
 21
9.5434329458886609
 31
0.0
  0
LINE
  5
166
100
AcDbEntity
100
AcDbLine
  8
Dimension
 62
256
370
-1
  6
CENTER
 10
18.2500000000000036
 20
8.7324945544638357
 30
0.0
 11
19.7500000000000036
 21
8.7324945544638357
 31
0.0
  0
LINE
  5
167
100
AcDbEntity
100
AcDbLine
  8
Dimension
 62
256
370
-1
  6
CENTER
 10
18.2500000000000036
 20
8.1906428446451294
 30
0.0
 11
19.7500000000000036
 21
8.1906428446451294
 31
0.0
  0
LINE
  5
168
100
AcDbEntity
100
AcDbLine
  8
Dimension
 62
256
370
-1
  6
CENTER
 10
18.2500000000000036
 20
7.1965226362079919
 30
0.0
 11
18.7500000000000036
 21
7.1965226362079919
 31
0.0
  0
LINE
  5
169
100
AcDbEntity
100
AcDbLine
  8
Dimension
 62
256
370
-1
  6
CENTER
 10
18.2500000000000036
 20
6.8050316257560706
 30
0.0
 11
18.7500000000000036
 21
6.8050316257560706
 31
0.0
  0
LINE
  5
16A
100
AcDbEntity
100
AcDbLine
  8
Dimension
 62
256
370
-1
  6
CENTER
 10
18.2500000000000036
 20
6.0816505623186838
 30
0.0
 11
18.7500000000000036
 21
6.0816505623186838
 31
0.0
  0
LINE
  5
16B
100
AcDbEntity
100
AcDbLine
  8
Dimension
 62
256
370
-1
  6
CENTER
 10
18.2500000000000036
 20
5.1365076553385105
 30
0.0
 11
18.7500000000000036
 21
5.1365076553385105
 31
0.0
  0
LINE
  5
16C
100
AcDbEntity
100
AcDbLine
  8
Dimension
 62
256
370
-1
  6
CENTER
 10
18.2500000000000036
 20
4.1134923446614877
 30
0.0
 11
18.7500000000000036
 21
4.1134923446614877
 31
0.0
  0
LINE
  5
16D
100
AcDbEntity
100
AcDbLine
  8
Dimension
 62
256
370
-1
  6
CENTER
 10
18.2500000000000036
 20
3.1683494376813126
 30
0.0
 11
18.7500000000000036
 21
3.1683494376813126
 31
0.0
  0
LINE
  5
16E
100
AcDbEntity
100
AcDbLine
  8
Dimension
 62
256
370
-1
  6
CENTER
 10
18.2500000000000036
 20
2.4449683742439294
 30
0.0
 11
18.7500000000000036
 21
2.4449683742439294
 31
0.0
  0
LINE
  5
16F
100
AcDbEntity
100
AcDbLine
  8
Dimension
 62
256
370
-1
  6
CENTER
 10
18.2500000000000036
 20
2.0534773637920081
 30
0.0
 11
18.7500000000000036
 21
2.0534773637920081
 31
0.0
  0
LINE
  5
170
100
AcDbEntity
100
AcDbLine
  8
Dimension
 62
256
370
-1
  6
CENTER
 10
19.5
 20
7.5
 30
0.0
 11
19.5
 21
13.5
 31
0.0
  0
LINE
  5
171
100
AcDbEntity
100
AcDbLine
  8
Dimension
 62
256
370
-1
  6
CENTER
 10
1.25
 20
7.1965226362079919
 30
0.0
 11
1.75
 21
7.1965226362079919
 31
0.0
  0
LINE
  5
172
100
AcDbEntity
100
AcDbLine
  8
Dimension
 62
256
370
-1
  6
CENTER
 10
1.25
 20
6.8050316257560706
 30
0.0
 11
1.75
 21
6.8050316257560706
 31
0.0
  0
LINE
  5
173
100
AcDbEntity
100
AcDbLine
  8
Dimension
 62
256
370
-1
  6
CENTER
 10
1.25
 20
6.0816505623186838
 30
0.0
 11
1.75
 21
6.0816505623186838
 31
0.0
  0
LINE
  5
174
100
AcDbEntity
100
AcDbLine
  8
Dimension
 62
256
370
-1
  6
CENTER
 10
1.25
 20
5.1365076553385105
 30
0.0
 11
1.75
 21
5.1365076553385105
 31
0.0
  0
LINE
  5
175
100
AcDbEntity
100
AcDbLine
  8
Dimension
 62
256
370
-1
  6
CENTER
 10
1.25
 20
4.1134923446614877
 30
0.0
 11
1.75
 21
4.1134923446614877
 31
0.0
  0
LINE
  5
176
100
AcDbEntity
100
AcDbLine
  8
Dimension
 62
256
370
-1
  6
CENTER
 10
1.25
 20
3.1683494376813126
 30
0.0
 11
1.75
 21
3.1683494376813126
 31
0.0
  0
LINE
  5
177
100
AcDbEntity
100
AcDbLine
  8
Dimension
 62
256
370
-1
  6
CENTER
 10
1.25
 20
2.4449683742439294
 30
0.0
 11
1.75
 21
2.4449683742439294
 31
0.0
  0
LINE
  5
178
100
AcDbEntity
100
AcDbLine
  8
Dimension
 62
256
370
-1
  6
CENTER
 10
1.25
 20
2.0534773637920081
 30
0.0
 11
1.75
 21
2.0534773637920081
 31
0.0
  0
LINE
  5
179
100
AcDbEntity
100
AcDbLine
  8
Dimension
 62
256
370
-1
  6
CENTER
 10
1.5
 20
1.5
 30
0.0
 11
1.5000000000000007
 21
7.5
 31
0.0
  0
LINE
  5
17A
100
AcDbEntity
100
AcDbLine
  8
Dimension
 62
256
370
-1
  6
CENTER
 10
9.75
 20
2.769093752367862
 30
0.0
 11
10.25
 21
2.769093752367862
 31
0.0
  0
LINE
  5
17B
100
AcDbEntity
100
AcDbLine
  8
Dimension
 62
256
370
-1
  6
CENTER
 10
9.75
 20
6.4809062476321362
 30
0.0
 11
10.25
 21
6.4809062476321362
 31
0.0
  0
LINE
  5
17C
100
AcDbEntity
100
AcDbLine
  8
Dimension
 62
256
370
-1
  6
CENTER
 10
3.5
 20
10.375
 30
0.0
 11
3.5
 21
16.625
 31
0.0
  0
CIRCLE
  5
17D
100
AcDbEntity
100
AcDbCircle
  8
Coupler
 62
256
370
-1
  6
ByLayer
 10
14.5000000000000018
 20
10.5000000000000018
 30
0.0
 40
2.5
  0
CIRCLE
  5
17E
100
AcDbEntity
100
AcDbCircle
  8
Coupler
 62
256
370
-1
  6
ByLayer
 10
14.5000000000000018
 20
10.5000000000000018
 30
0.0
 40
2.375
  0
LINE
  5
17F
100
AcDbEntity
100
AcDbLine
  8
Coupler
 62
256
370
-1
  6
ByLayer
 10
16.8746107049367069
 20
10.5429999999999993
 30
0.0
 11
16.9996301726455457
 21
10.5429999999999993
 31
0.0
  0
LINE
  5
180
100
AcDbEntity
100
AcDbLine
  8
Coupler
 62
256
370
-1
  6
ByLayer
 10
16.8746107049367069
 20
10.4570000000000007
 30
0.0
 11
16.9996301726455457
 21
10.4570000000000007
 31
0.0
  0
LINE
  5
181
100
AcDbEntity
100
AcDbLine
  8
Coupler
 62
256
370
-1
  6
ByLayer
 10
16.677398840381521
 20
11.448450994994058
 30
0.0
 11
16.7929017677631762
 21
11.4962938740093286
 31
0.0
  0
LINE
  5
182
100
AcDbEntity
100
AcDbLine
  8
Coupler
 62
256
370
-1
  6
ByLayer
 10
16.710309615564924
 20
11.3689973551980739
 30
0.0
 11
16.8258125429465721
 21
11.4168402342133533
 31
0.0
  0
LINE
  5
183
100
AcDbEntity
100
AcDbLine
  8
Coupler
 62
256
370
-1
  6
ByLayer
 10
16.1486977405478882
 20
12.2095089237299419
 30
0.0
 11
16.2370998539451463
 21
12.2979110371271911
 31
0.0
  0
LINE
  5
184
100
AcDbEntity
100
AcDbLine
  8
Coupler
 62
256
370
-1
  6
ByLayer
 10
16.2095089237299419
 20
12.1486977405478882
 30
0.0
 11
16.2979110371271929
 21
12.2370998539451428
 31
0.0
  0
LINE
  5
185
100
AcDbEntity
100
AcDbLine
  8
Coupler
 62
256
370
-1
  6
ByLayer
 10
15.3689973551980739
 20
12.710309615564924
 30
0.0
 11
15.4168402342133533
 21
12.8258125429465757
 31
0.0
  0
LINE
  5
186
100
AcDbEntity
100
AcDbLine
  8
Coupler
 62
256
370
-1
  6
ByLayer
 10
15.448450994994058
 20
12.6773988403815228
 30
0.0
 11
15.4962938740093303
 21
12.7929017677631744
 31
0.0
  0
LINE
  5
187
100
AcDbEntity
100
AcDbLine
  8
Coupler
 62
256
370
-1
  6
ByLayer
 10
14.4569999999999954
 20
12.8746107049367087
 30
0.0
 11
14.4570000000000007
 21
12.9996301726455474
 31
0.0
  0
LINE
  5
188
100
AcDbEntity
100
AcDbLine
  8
Coupler
 62
256
370
-1
  6
ByLayer
 10
14.5430000000000099
 20
12.8746107049367087
 30
0.0
 11
14.5430000000000064
 21
12.9996301726455474
 31
0.0
  0
LINE
  5
189
100
AcDbEntity
100
AcDbLine
  8
Coupler
 62
256
370
-1
  6
ByLayer
 10
13.5515490050059455
 20
12.6773988403815228
 30
0.0
 11
13.503706125990675
 21
12.7929017677631762
 31
0.0
  0
LINE
  5
18A
100
AcDbEntity
100
AcDbLine
  8
Coupler
 62
256
370
-1
  6
ByLayer
 10
13.6310026448019297
 20
12.7103096155649258
 30
0.0
 11
13.5831597657866503
 21
12.8258125429465757
 31
0.0
  0
LINE
  5
18B
100
AcDbEntity
100
AcDbLine
  8
Coupler
 62
256
370
-1
  6
ByLayer
 10
12.7904910762700634
 20
12.1486977405478882
 30
0.0
 11
12.7020889628728124
 21
12.2370998539451445
 31
0.0
  0
LINE
  5
18C
100
AcDbEntity
100
AcDbLine
  8
Coupler
 62
256
370
-1
  6
ByLayer
 10
12.8513022594521154
 20
12.2095089237299419
 30
0.0
 11
12.762900146054859
 21
12.2979110371271894
 31
0.0
  0
LINE
  5
18D
100
AcDbEntity
100
AcDbLine
  8
Coupler
 62
256
370
-1
  6
ByLayer
 10
12.2896903844350778
 20
11.3689973551980756
 30
0.0
 11
12.1741874570534296
 21
11.4168402342133533
 31
0.0
  0
LINE
  5
18E
100
AcDbEntity
100
AcDbLine
  8
Coupler
 62
256
370
-1
  6
ByLayer
 10
12.3226011596184808
 20
11.448450994994058
 30
0.0
 11
12.2070982322368291
 21
11.4962938740093303
 31
0.0
  0
LINE
  5
18F
100
AcDbEntity
100
AcDbLine
  8
Coupler
 62
256
370
-1
  6
ByLayer
 10
12.1253892950632949
 20
10.4569999999999954
 30
0.0
 11
12.0003698273544561
 21
10.4570000000000007
 31
0.0
  0
LINE
  5
190
100
AcDbEntity
100
AcDbLine
  8
Coupler
 62
256
370
-1
  6
ByLayer
 10
12.1253892950632949
 20
10.5430000000000064
 30
0.0
 11
12.0003698273544561
 21
10.5430000000000064
 31
0.0
  0
LINE
  5
191
100
AcDbEntity
100
AcDbLine
  8
Coupler
 62
256
370
-1
  6
ByLayer
 10
12.3226011596184808
 20
9.5515490050059455
 30
0.0
 11
12.2070982322368273
 21
9.503706125990675
 31
0.0
  0
LINE
  5
192
100
AcDbEntity
100
AcDbLine
  8
Coupler
 62
256
370
-1
  6
ByLayer
 10
12.2896903844350778
 20
9.6310026448019315
 30
0.0
 11
12.1741874570534279
 21
9.5831597657866503
 31
0.0
  0
LINE
  5
193
100
AcDbEntity
100
AcDbLine
  8
Coupler
 62
256
370
-1
  6
ByLayer
 10
12.8513022594521136
 20
8.7904910762700617
 30
0.0
 11
12.762900146054859
 21
8.7020889628728142
 31
0.0
  0
LINE
  5
194
100
AcDbEntity
100
AcDbLine
  8
Coupler
 62
256
370
-1
  6
ByLayer
 10
12.7904910762700617
 20
8.8513022594521154
 30
0.0
 11
12.7020889628728106
 21
8.7629001460548626
 31
0.0
  0
LINE
  5
195
100
AcDbEntity
100
AcDbLine
  8
Coupler
 62
256
370
-1
  6
ByLayer
 10
13.6310026448019279
 20
8.2896903844350796
 30
0.0
 11
13.5831597657866485
 21
8.1741874570534279
 31
0.0
  0
LINE
  5
196
100
AcDbEntity
100
AcDbLine
  8
Coupler
 62
256
370
-1
  6
ByLayer
 10
13.5515490050059455
 20
8.3226011596184808
 30
0.0
 11
13.5037061259906732
 21
8.2070982322368291
 31
0.0
  0
LINE
  5
197
100
AcDbEntity
100
AcDbLine
  8
Coupler
 62
256
370
-1
  6
ByLayer
 10
14.5430000000000081
 20
8.1253892950632949
 30
0.0
 11
14.5430000000000046
 21
8.0003698273544561
 31
0.0
  0
LINE
  5
198
100
AcDbEntity
100
AcDbLine
  8
Coupler
 62
256
370
-1
  6
ByLayer
 10
14.4569999999999919
 20
8.1253892950632949
 30
0.0
 11
14.4569999999999972
 21
8.0003698273544561
 31
0.0
  0
LINE
  5
199
100
AcDbEntity
100
AcDbLine
  8
Coupler
 62
256
370
-1
  6
ByLayer
 10
15.448450994994058
 20
8.3226011596184826
 30
0.0
 11
15.4962938740093303
 21
8.2070982322368291
 31
0.0
  0
LINE
  5
19A
100
AcDbEntity
100
AcDbLine
  8
Coupler
 62
256
370
-1
  6
ByLayer
 10
15.3689973551980774
 20
8.2896903844350796
 30
0.0
 11
15.4168402342133533
 21
8.1741874570534279
 31
0.0
  0
LINE
  5
19B
100
AcDbEntity
100
AcDbLine
  8
Coupler
 62
256
370
-1
  6
ByLayer
 10
16.2095089237299419
 20
8.8513022594521136
 30
0.0
 11
16.2979110371271929
 21
8.762900146054859
 31
0.0
  0
LINE
  5
19C
100
AcDbEntity
100
AcDbLine
  8
Coupler
 62
256
370
-1
  6
ByLayer
 10
16.1486977405478882
 20
8.7904910762700617
 30
0.0
 11
16.2370998539451463
 21
8.7020889628728124
 31
0.0
  0
LINE
  5
19D
100
AcDbEntity
100
AcDbLine
  8
Coupler
 62
256
370
-1
  6
ByLayer
 10
16.710309615564924
 20
9.6310026448019279
 30
0.0
 11
16.8258125429465721
 21
9.5831597657866485
 31
0.0
  0
LINE
  5
19E
100
AcDbEntity
100
AcDbLine
  8
Coupler
 62
256
370
-1
  6
ByLayer
 10
16.677398840381521
 20
9.551549005005942
 30
0.0
 11
16.7929017677631762
 21
9.5037061259906714
 31
0.0
  0
ARC
  5
19F
100
AcDbEntity
  8
Module
 62
7
370
100
  6
CONTINUOUS
100
AcDbCircle
 10
9.5000000000000018
 20
13.5
 30
0.0
 40
2.625
100
AcDbArc
 50
119.685451830923256
 51
150.3145481690767724
  0
ARC
  5
1A0
100
AcDbEntity
  8
Module
 62
7
370
100
  6
CONTINUOUS
100
AcDbCircle
 10
9.5000000000000018
 20
13.5
 30
0.0
 40
2.625
100
AcDbArc
 50
29.6854518309232382
 51
60.314548169076744
  0
ARC
  5
1A1
100
AcDbEntity
  8
Module
 62
7
370
100
  6
CONTINUOUS
100
AcDbCircle
 10
9.5000000000000018
 20
13.5
 30
0.0
 40
2.625
100
AcDbArc
 50
209.6854518309232276
 51
240.314548169076744
  0
ARC
  5
1A2
100
AcDbEntity
  8
Module
 62
7
370
100
  6
CONTINUOUS
100
AcDbCircle
 10
9.5000000000000018
 20
13.5
 30
0.0
 40
2.625
100
AcDbArc
 50
299.6854518309232276
 51
330.3145481690767156
  0
ARC
  5
1A3
100
AcDbEntity
  8
Module
 62
7
370
100
  6
CONTINUOUS
100
AcDbCircle
 10
9.5000000000000018
 20
13.5
 30
0.0
 40
2.5
100
AcDbArc
 50
121.332251497594271
 51
148.6677485024057148
  0
ARC
  5
1A4
100
AcDbEntity
  8
Module
 62
7
370
100
  6
CONTINUOUS
100
AcDbCircle
 10
9.5000000000000018
 20
13.5
 30
0.0
 40
2.5
100
AcDbArc
 50
31.3322514975942674
 51
58.667748502405729
  0
ARC
  5
1A5
100
AcDbEntity
  8
Module
 62
7
370
100
  6
CONTINUOUS
100
AcDbCircle
 10
9.5000000000000018
 20
13.5
 30
0.0
 40
2.5
100
AcDbArc
 50
301.3322514975942568
 51
328.6677485024057432
  0
ARC
  5
1A6
100
AcDbEntity
  8
Module
 62
7
370
100
  6
CONTINUOUS
100
AcDbCircle
 10
9.5000000000000018
 20
13.5
 30
0.0
 40
2.5
100
AcDbArc
 50
211.3322514975942852
 51
238.6677485024057148
  0
LINE
  5
1A7
100
AcDbEntity
100
AcDbLine
  8
Module
 62
256
370
-1
  6
ByLayer
 10
8.2000000000000028
 20
15.7804878863962426
 30
0.0
 11
8.2000000000000028
 21
15.6354156504062622
 31
0.0
  0
LINE
  5
1A8
100
AcDbEntity
100
AcDbLine
  8
Module
 62
256
370
-1
  6
ByLayer
 10
7.2195121136037601
 20
14.8000000000000007
 30
0.0
 11
7.3645843495937404
 21
14.8000000000000007
 31
0.0
  0
LINE
  5
1A9
100
AcDbEntity
100
AcDbLine
  8
Module
 62
256
370
-1
  6
ByLayer
 10
7.2195121136037592
 20
12.2000000000000011
 30
0.0
 11
7.3645843495937404
 21
12.1999999999999993
 31
0.0
  0
LINE
  5
1AA
100
AcDbEntity
100
AcDbLine
  8
Module
 62
256
370
-1
  6
ByLayer
 10
8.2000000000000028
 20
11.2195121136037592
 30
0.0
 11
8.2000000000000028
 21
11.3645843495937378
 31
0.0
  0
LINE
  5
1AB
100
AcDbEntity
100
AcDbLine
  8
Module
 62
256
370
-1
  6
ByLayer
 10
10.8000000000000025
 20
11.2195121136037574
 30
0.0
 11
10.8000000000000025
 21
11.3645843495937378
 31
0.0
  0
LINE
  5
1AC
100
AcDbEntity
100
AcDbLine
  8
Module
 62
256
370
-1
  6
ByLayer
 10
11.7804878863962443
 20
12.1999999999999993
 30
0.0
 11
11.635415650406264
 21
12.1999999999999993
 31
0.0
  0
LINE
  5
1AD
100
AcDbEntity
100
AcDbLine
  8
Module
 62
256
370
-1
  6
ByLayer
 10
11.7804878863962443
 20
14.8000000000000007
 30
0.0
 11
11.635415650406264
 21
14.8000000000000007
 31
0.0
  0
LINE
  5
1AE
100
AcDbEntity
100
AcDbLine
  8
Module
 62
256
370
-1
  6
ByLayer
 10
10.8000000000000025
 20
15.7804878863962408
 30
0.0
 11
10.8000000000000025
 21
15.6354156504062622
 31
0.0
  0
CIRCLE
  5
1AF
100
AcDbEntity
100
AcDbCircle
  8
Dimension
 62
256
370
-1
  6
DASHED
 10
9.5000000000000018
 20
13.5
 30
0.0
 40
2.625
  0
MTEXT
  5
1B0
100
AcDbEntity
100
AcDbMText
  8
Coupler
 62
256
370
-1
  6
ByLayer
 10
13.4000000000000021
 20
9.5000000000000018
 30
0.0
 40
0.5
 41
100.0
 71
1
 72
2
  1
Coupler
  7
normallatin1
 50
0.0
 73
0
 44
1.0
  0
LINE
  5
1B1
100
AcDbEntity
100
AcDbLine
  8
Dimension
 62
256
370
-1
  6
CENTER
 10
9.5000000000000018
 20
10.375
 30
0.0
 11
9.5000000000000018
 21
16.625
 31
0.0
  0
DIMENSION
  5
1B2
100
AcDbEntity
  8
Dimension
 62
256
370
-1
  6
ByLayer
100
AcDbDimension
 10
6.7000000000000028
 20
16.125
 30
0.0
 11
6.5000000000000027
 21
13.5
 31
0.0
 70
0
 71
5
 72
0
 41
1.0
 42
0.0
  1

  3
Standard
100
AcDbAlignedDimension
 13
9.5000000000000018
 23
10.875
 33
0.0
 14
9.5000000000000018
 24
16.125
 34
0.0
 50
90.0
100
AcDbRotatedDimension
  0
DIMENSION
  5
1B3
100
AcDbEntity
  8
Dimension
 62
256
370
-1
  6
ByLayer
100
AcDbDimension
 10
3.5
 20
13.5
 30
0.0
 11
2.7575378797541252
 21
14.5253048327204937
 31
0.0
 70
4
 71
5
 72
0
 41
1.0
 42
0.0
  1

  3
Standard
100
AcDbRadialDimension
 15
1.7322330470336313
 25
15.2677669529663689
 35
0.0
 40
0.0
  0
LINE
  5
1B4
100
AcDbEntity
100
AcDbLine
  8
Dimension
 62
256
370
-1
  6
CENTER
 10
2.9391153242036303
 20
10.6802423188407118
 30
0.0
 11
3.0610467754637112
 21
11.2932331190927329
 31
0.0
  0
LINE
  5
1B5
100
AcDbEntity
100
AcDbLine
  8
Dimension
 62
256
370
-1
  6
CENTER
 10
4.0608846757963661
 20
10.6802423188407118
 30
0.0
 11
3.9389532245362866
 21
11.2932331190927329
 31
0.0
  0
LINE
  5
1B6
100
AcDbEntity
100
AcDbLine
  8
Dimension
 62
256
370
-1
  6
CENTER
 10
5.0972644199313555
 20
11.1095248646301812
 30
0.0
 11
4.7500330242941029
 21
11.6291933723192731
 31
0.0
  0
LINE
  5
1B7
100
AcDbEntity
100
AcDbLine
  8
Dimension
 62
256
370
-1
  6
CENTER
 10
5.8904751353698188
 20
11.9027355800686436
 30
0.0
 11
5.3708066276807251
 21
12.2499669757058953
 31
0.0
  0
LINE
  5
1B8
100
AcDbEntity
100
AcDbLine
  8
Dimension
 62
256
370
-1
  6
CENTER
 10
6.3197576811592882
 20
12.9391153242036303
 30
0.0
 11
5.7067668809072671
 21
13.0610467754637103
 31
0.0
  0
LINE
  5
1B9
100
AcDbEntity
100
AcDbLine
  8
Dimension
 62
256
370
-1
  6
CENTER
 10
6.319757681159289
 20
14.0608846757963661
 30
0.0
 11
5.7067668809072671
 21
13.9389532245362862
 31
0.0
  0
LINE
  5
1BA
100
AcDbEntity
100
AcDbLine
  8
Dimension
 62
256
370
-1
  6
CENTER
 10
5.8904751353698188
 20
15.0972644199313564
 30
0.0
 11
5.370806627680726
 21
14.7500330242941029
 31
0.0
  0
LINE
  5
1BB
100
AcDbEntity
100
AcDbLine
  8
Dimension
 62
256
370
-1
  6
CENTER
 10
5.0972644199313573
 20
15.8904751353698188
 30
0.0
 11
4.7500330242941047
 21
15.3708066276807251
 31
0.0
  0
LINE
  5
1BC
100
AcDbEntity
100
AcDbLine
  8
Dimension
 62
256
370
-1
  6
CENTER
 10
4.0608846757963706
 20
16.3197576811592882
 30
0.0
 11
3.9389532245362897
 21
15.7067668809072671
 31
0.0
  0
LINE
  5
1BD
100
AcDbEntity
100
AcDbLine
  8
Dimension
 62
256
370
-1
  6
CENTER
 10
2.9391153242036339
 20
16.3197576811592882
 30
0.0
 11
3.0610467754637138
 21
15.7067668809072671
 31
0.0
  0
LINE
  5
1BE
100
AcDbEntity
100
AcDbLine
  8
Dimension
 62
256
370
-1
  6
CENTER
 10
1.9027355800686445
 20
15.8904751353698188
 30
0.0
 11
2.2499669757058971
 21
15.3708066276807269
 31
0.0
  0
LINE
  5
1BF
100
AcDbEntity
100
AcDbLine
  8
Dimension
 62
256
370
-1
  6
CENTER
 10
1.1095248646301847
 20
15.0972644199313617
 30
0.0
 11
1.6291933723192766
 21
14.7500330242941082
 31
0.0
  0
LINE
  5
1C0
100
AcDbEntity
100
AcDbLine
  8
Dimension
 62
256
370
-1
  6
CENTER
 10
0.6802423188407114
 20
14.0608846757963679
 30
0.0
 11
1.2932331190927324
 21
13.9389532245362879
 31
0.0
  0
LINE
  5
1C1
100
AcDbEntity
100
AcDbLine
  8
Dimension
 62
256
370
-1
  6
CENTER
 10
0.680242318840711
 20
12.9391153242036339
 30
0.0
 11
1.2932331190927324
 21
13.0610467754637138
 31
0.0
  0
LINE
  5
1C2
100
AcDbEntity
100
AcDbLine
  8
Dimension
 62
256
370
-1
  6
CENTER
 10
1.1095248646301807
 20
11.9027355800686436
 30
0.0
 11
1.6291933723192735
 21
12.2499669757058971
 31
0.0
  0
LINE
  5
1C3
100
AcDbEntity
100
AcDbLine
  8
Dimension
 62
256
370
-1
  6
CENTER
 10
1.9027355800686425
 20
11.1095248646301812
 30
0.0
 11
2.2499669757058953
 21
11.6291933723192749
 31
0.0
  0
LINE
  5
1C4
100
AcDbEntity
100
AcDbLine
  8
Dimension
 62
256
370
-1
  6
CENTER
 10
7.9090097423302703
 20
15.0909902576697323
 30
0.0
 11
7.4670680040886781
 21
15.5329319959113246
 31
0.0
  0
LINE
  5
1C5
100
AcDbEntity
100
AcDbLine
  8
Dimension
 62
256
370
-1
  6
CENTER
 10
7.9090097423302694
 20
11.9090097423302677
 30
0.0
 11
7.4670680040886772
 21
11.4670680040886772
 31
0.0
  0
DIMENSION
  5
1C6
100
AcDbEntity
  8
Dimension
 62
256
370
-1
  6
ByLayer
100
AcDbDimension
 10
9.0000000000000018
 20
3.3250000000000002
 30
0.0
 11
8.8000000000000025
 21
4.625
 31
0.0
 70
0
 71
5
 72
0
 41
1.0
 42
0.0
  1

  3
Standard
100
AcDbAlignedDimension
 13
10.0
 23
5.9249999999999998
 33
0.0
 14
10.0
 24
3.3250000000000002
 34
0.0
 50
90.0
100
AcDbRotatedDimension
  0
LINE
  5
1C7
100
AcDbEntity
100
AcDbLine
  8
Dimension
 62
256
370
-1
  6
ByLayer
 10
2.0
 20
7.1000000000000005
 30
0.0
 11
2.0
 21
5.0
 31
0.0
  0
DIMENSION
  5
1C8
100
AcDbEntity
  8
Dimension
 62
256
370
-1
  6
ByLayer
100
AcDbDimension
 10
0.8750000000000018
 20
13.5
 30
0.0
 11
0.0
 21
0.0
 31
0.0
 70
2
 71
5
 72
0
 41
1.0
 42
0.0
  1

  3
Standard
100
AcDb2LineAngularDimension
 13
7.9090097423302703
 23
15.0909902576697323
 33
0.0
 14
7.4670680040886781
 24
15.5329319959113246
 34
0.0
 15
12.6250000000000018
 25
13.5
 35
0.0
 16
10.8000000000000007
 26
12.7000000000000011
 36
0.0
  0
LINE
  5
1C9
100
AcDbEntity
100
AcDbLine
  8
Dimension
 62
256
370
-1
  6
CENTER
 10
9.5000000000000018
 20
13.5
 30
0.0
 11
11.5329319959113263
 21
11.4670680040886754
 31
0.0
  0
LINE
  5
1CA
100
AcDbEntity
100
AcDbLine
  8
1
 62
256
370
-1
  6
ByLayer
 10
9.5000000000000018
 20
13.5
 30
0.0
 11
7.3534690911722684
 21
15.010969906201705
 31
0.0
  0
DIMENSION
  5
1CB
100
AcDbEntity
  8
Dimension
 62
256
370
-1
  6
ByLayer
100
AcDbDimension
 10
20.0
 20
7.125
 30
0.0
 11
19.8000000000000007
 21
4.625
 31
0.0
 70
0
 71
5
 72
0
 41
1.0
 42
0.0
  1
5\~(I.D.)
  3
Standard
100
AcDbAlignedDimension
 13
18.984375
 23
2.125
 33
0.0
 14
18.984375
 24
7.125
 34
0.0
 50
90.0
100
AcDbRotatedDimension
  0
DIMENSION
  5
1CC
100
AcDbEntity
  8
Dimension
 62
256
370
-1
  6
ByLayer
100
AcDbDimension
 10
20.9000000000000021
 20
7.25
 30
0.0
 11
20.7000000000000028
 21
4.625
 31
0.0
 70
0
 71
5
 72
0
 41
1.0
 42
0.0
  1
5.25\~(O.D.)
  3
Standard
100
AcDbAlignedDimension
 13
18.984375
 23
2.0
 33
0.0
 14
18.984375
 24
7.25
 34
0.0
 50
90.0
100
AcDbRotatedDimension
  0
LEADER
  5
1CD
  8
Dimension
 62
256
370
-1
  6
ByLayer
100
AcDbEntity
100
AcDbLeader
  3
Standard
 71
1
 72
0
 73
3
 74
0
 75
0
 40
1.0
 41
10.0
 76
2
 10
7.4556848487354941
 20
14.9390189582873383
 10
7.9667636365516206
 20
14.5792642187155046
  0
LEADER
  5
1CE
  8
Dimension
 62
256
370
-1
  6
ByLayer
100
AcDbEntity
100
AcDbLeader
  3
Standard
 71
1
 72
0
 73
3
 74
0
 75
0
 40
1.0
 41
10.0
 76
2
 10
7.3534690911722693
 20
15.010969906201705
 10
6.9446060609193667
 20
15.298773697859172
  0
MTEXT
  5
1CF
100
AcDbEntity
100
AcDbMText
  8
Dimension
 62
256
370
-1
  6
ByLayer
 10
7.8000000000000007
 20
14.5000000000000018
 30
0.0
 40
0.2
 41
100.0
 71
1
 72
2
  1
0.125\S+.003\-.001
  7
normallatin1
 50
0.0
 73
0
 44
1.0
  0
LINE
  5
1D0
100
AcDbEntity
100
AcDbLine
  8
Module
 62
256
370
-1
  6
ByLayer
 10
11.3151961607397258
 20
15.2190296384983501
 30
0.0
 11
11.4036156645025315
 21
15.3074491422611558
 31
0.0
  0
LINE
  5
1D1
100
AcDbEntity
100
AcDbLine
  8
Module
 62
256
370
-1
  6
ByLayer
 10
11.2190296384983537
 20
15.3151961607397222
 30
0.0
 11
11.3074491422611594
 21
15.4036156645025279
 31
0.0
  0
LINE
  5
1D2
100
AcDbEntity
100
AcDbLine
  8
Module
 62
256
370
-1
  6
ByLayer
 10
7.7809703615016517
 20
15.315196160739724
 30
0.0
 11
7.6925508577388459
 21
15.4036156645025297
 31
0.0
  0
LINE
  5
1D3
100
AcDbEntity
100
AcDbLine
  8
Module
 62
256
370
-1
  6
ByLayer
 10
7.6848038392602795
 20
15.2190296384983519
 30
0.0
 11
7.5963843354974738
 21
15.3074491422611576
 31
0.0
  0
LINE
  5
1D4
100
AcDbEntity
100
AcDbLine
  8
Module
 62
256
370
-1
  6
ByLayer
 10
7.6848038392602778
 20
11.7809703615016499
 30
0.0
 11
7.5963843354974712
 21
11.6925508577388442
 31
0.0
  0
LINE
  5
1D5
100
AcDbEntity
100
AcDbLine
  8
Module
 62
256
370
-1
  6
ByLayer
 10
7.7809703615016499
 20
11.6848038392602778
 30
0.0
 11
7.6925508577388433
 21
11.5963843354974721
 31
0.0
  0
LINE
  5
1D6
100
AcDbEntity
100
AcDbLine
  8
Module
 62
256
370
-1
  6
ByLayer
 10
11.2190296384983519
 20
11.684803839260276
 30
0.0
 11
11.3074491422611576
 21
11.5963843354974703
 31
0.0
  0
LINE
  5
1D7
100
AcDbEntity
100
AcDbLine
  8
Module
 62
256
370
-1
  6
ByLayer
 10
11.315196160739724
 20
11.7809703615016463
 30
0.0
 11
11.4036156645025279
 21
11.6925508577388406
 31
0.0
  0
DIMENSION
  5
1D8
100
AcDbEntity
  8
Dimension
 62
256
370
-1
  6
ByLayer
100
AcDbDimension
 10
11.69808326112069
 20
15.6019167388793125
 30
0.0
 11
11.7914213562373131
 21
15.7914213562373078
 31
0.0
 70
1
 71
5
 72
0
 41
1.0
 42
0.0
  1

  3
Standard
100
AcDbAlignedDimension
 13
11.3074491422611594
 23
15.4036156645025279
 33
0.0
 14
11.4036156645025315
 24
15.3074491422611558
 34
0.0
  0
LEADER
  5
1D9
  8
Dimension
 62
256
370
-1
  6
ByLayer
100
AcDbEntity
100
AcDbLeader
  3
Standard
 71
1
 72
0
 73
3
 74
0
 75
0
 40
1.0
 41
10.0
 76
3
 10
11.7811106588963366
 20
15.781110658896333
 10
11.9578873541929731
 20
15.9578873541929696
 10
12.6000000000000014
 20
15.9578873541929696
  0
LINE
  5
1DA
100
AcDbEntity
100
AcDbLine
  8
Dimension
 62
256
370
-1
  6
CENTER
 10
11.0909902576697341
 20
15.0909902576697306
 30
0.0
 11
11.7811106588963366
 21
15.781110658896333
 31
0.0
  0
MTEXT
  5
1DB
100
AcDbEntity
100
AcDbMText
  8
Dimension
 62
256
370
-1
  6
ByLayer
 10
12.7000000000000011
 20
16.1999999999999993
 30
0.0
 40
0.2
 41
100.0
 71
1
 72
2
  1
Drill\~#29\PTap\~#8-32\P4\~places
  7
normallatin1
 50
0.0
 73
0
 44
1.0
  0
DIMENSION
  5
1DC
100
AcDbEntity
  8
Dimension
 62
256
370
-1
  6
ByLayer
100
AcDbDimension
 10
2.015625
 20
8.0
 30
0.0
 11
1.515625
 21
8.1999999999999993
 31
0.0
 70
0
 71
5
 72
0
 41
1.0
 42
0.0
  1
1\S+.02^\~-.01;
  3
Standard
100
AcDbAlignedDimension
 13
1.015625
 23
7.25
 33
0.0
 14
2.015625
 24
7.25
 34
0.0
 50
0.0
100
AcDbRotatedDimension
  0
DIMENSION
  5
1DD
100
AcDbEntity
  8
Dimension
 62
256
370
-1
  6
ByLayer
100
AcDbDimension
 10
3.5
 20
10.375
 30
0.0
 11
0.0
 21
0.0
 31
0.0
 70
2
 71
5
 72
0
 41
1.0
 42
0.0
  1
\~
  3
Standard
100
AcDb2LineAngularDimension
 13
3.9389532245362866
 23
11.2932331190927329
 33
0.0
 14
4.0608846757963661
 24
10.6802423188407118
 34
0.0
 15
3.5
 25
16.625
 35
0.0
 16
3.9000000000000004
 26
9.7000000000000011
 36
0.0
  0
LINE
  5
1DE
100
AcDbEntity
100
AcDbLine
  8
1
 62
256
370
-1
  6
ByLayer
 10
3.5
 20
13.5
 30
0.0
 11
5.3561553006146871
 21
15.356155300614688
 31
0.0
  0
LEADER
  5
1DF
  8
Dimension
 62
256
370
-1
  6
ByLayer
100
AcDbEntity
100
AcDbLeader
  3
Standard
 71
1
 72
0
 73
3
 74
0
 75
0
 40
1.0
 41
10.0
 76
2
 10
5.267766952966368
 20
15.2677669529663689
 10
4.8258252147247767
 20
14.8258252147247767
  0
LEADER
  5
1E0
  8
Dimension
 62
256
370
-1
  6
ByLayer
100
AcDbEntity
100
AcDbLeader
  3
Standard
 71
1
 72
0
 73
3
 74
0
 75
0
 40
1.0
 41
10.0
 76
2
 10
5.3561553006146871
 20
15.356155300614688
 10
5.7097086912079611
 20
15.7097086912079611
  0
MTEXT
  5
1E1
100
AcDbEntity
100
AcDbMText
  8
Dimension
 62
256
370
-1
  6
ByLayer
 10
4.1000000000000014
 20
14.7000000000000011
 30
0.0
 40
0.2
 41
100.0
 71
1
 72
2
  1
0.125\S+.003\-.001
  7
normallatin1
 50
0.0
 73
0
 44
1.0
  0
LINE
  5
1E2
100
AcDbEntity
100
AcDbLine
  8
Dimension
 62
256
370
-1
  6
ByLayer
 10
4.0
 20
10.875
 30
0.0
 11
6.7000000000000002
 21
10.875
 31
0.0
  0
LINE
  5
1E3
100
AcDbEntity
100
AcDbLine
  8
Dimension
 62
256
370
-1
  6
ByLayer
 10
4.0000000000000009
 20
16.125
 30
0.0
 11
6.7000000000000011
 21
16.125
 31
0.0
  0
DIMENSION
  5
1E4
100
AcDbEntity
  8
Dimension
 62
256
370
-1
  6
ByLayer
100
AcDbDimension
 10
5.6115246477398344
 20
10.2408826596373732
 30
0.0
 11
5.5461414298125469
 21
10.4377329449139555
 31
0.0
 70
1
 71
5
 72
0
 41
1.0
 42
0.0
  1

  3
Standard
100
AcDbAlignedDimension
 13
4.9343202505543005
 23
11.452385432057623
 33
0.0
 14
4.842858593201032
 24
11.3912727064254735
 34
0.0
  0
MTEXT
  5
1E5
100
AcDbEntity
100
AcDbMText
  8
Dimension
 62
256
370
-1
  6
ByLayer
 10
5.9000000000000004
 20
10.2000000000000011
 30
0.0
 40
0.2
 41
100.0
 71
1
 72
2
  1
Drill\~#35\PFor\~#4-40\PCountersink\~82%%d\~Depth\~0.086\S+.005\-.005;\P16\~places
  7
normallatin1
 50
0.0
 73
0
 44
1.0
  0
LINE
  5
1E6
100
AcDbEntity
100
AcDbLine
  8
1
 62
256
370
-1
  6
ByLayer
 10
11.3750000000000018
 20
7.5
 30
0.0
 11
11.3750000000000018
 21
13.5
 31
0.0
  0
MTEXT
  5
1E7
100
AcDbEntity
100
AcDbMText
  8
Section
 62
256
370
-1
  6
ByLayer
 10
9.0
 20
12.5000000000000018
 30
0.0
 40
0.5
 41
100.0
 71
1
 72
2
  1
B-B
  7
normallatin1
 50
0.0
 73
0
 44
1.0
  0
LINE
  5
1E8
100
AcDbEntity
100
AcDbLine
  8
Dimension
 62
256
370
-1
  6
CENTER
 10
16.3477590650225757
 20
11.2653668647301792
 30
0.0
 11
17.1561536559699519
 21
11.6002148680496333
 31
0.0
  0
LINE
  5
1E9
100
AcDbEntity
100
AcDbLine
  8
Dimension
 62
256
370
-1
  6
CENTER
 10
13.7346331352698243
 20
12.3477590650225757
 30
0.0
 11
13.3997851319503702
 21
13.1561536559699519
 31
0.0
  0
LINE
  5
1EA
100
AcDbEntity
100
AcDbLine
  8
Dimension
 62
256
370
-1
  6
CENTER
 10
12.6522409349774279
 20
9.7346331352698243
 30
0.0
 11
11.8438463440300517
 21
9.3997851319503702
 31
0.0
  0
LINE
  5
1EB
100
AcDbEntity
100
AcDbLine
  8
Dimension
 62
256
370
-1
  6
CENTER
 10
15.2653668647301775
 20
8.6522409349774279
 30
0.0
 11
15.6002148680496333
 21
7.8438463440300517
 31
0.0
  0
LINE
  5
1EC
100
AcDbEntity
100
AcDbLine
  8
Dimension
 62
256
370
-1
  6
CENTER
 10
15.2653668647301828
 20
12.3477590650225739
 30
0.0
 11
15.6002148680496369
 21
13.1561536559699501
 31
0.0
  0
LINE
  5
1ED
100
AcDbEntity
100
AcDbLine
  8
Dimension
 62
256
370
-1
  6
CENTER
 10
13.0857864376269077
 20
11.9142135623730976
 30
0.0
 11
12.467068004088679
 21
12.5329319959113263
 31
0.0
  0
LINE
  5
1EE
100
AcDbEntity
100
AcDbLine
  8
Dimension
 62
256
370
-1
  6
CENTER
 10
12.6522409349774296
 20
11.2653668647301828
 30
0.0
 11
11.8438463440300534
 21
11.6002148680496369
 31
0.0
  0
LINE
  5
1EF
100
AcDbEntity
100
AcDbLine
  8
Dimension
 62
256
370
-1
  6
CENTER
 10
13.0857864376269042
 20
9.0857864376269095
 30
0.0
 11
12.4670680040886772
 21
8.467068004088679
 31
0.0
  0
LINE
  5
1F0
100
AcDbEntity
100
AcDbLine
  8
Dimension
 62
256
370
-1
  6
CENTER
 10
13.734633135269819
 20
8.6522409349774296
 30
0.0
 11
13.3997851319503667
 21
7.8438463440300534
 31
0.0
  0
LINE
  5
1F1
100
AcDbEntity
100
AcDbLine
  8
Dimension
 62
256
370
-1
  6
CENTER
 10
15.9142135623730923
 20
9.0857864376269042
 30
0.0
 11
16.5329319959113228
 21
8.4670680040886754
 31
0.0
  0
LINE
  5
1F2
100
AcDbEntity
100
AcDbLine
  8
Dimension
 62
256
370
-1
  6
CENTER
 10
16.3477590650225721
 20
9.7346331352698172
 30
0.0
 11
17.1561536559699519
 21
9.3997851319503667
 31
0.0
  0
DIMENSION
  5
1F3
100
AcDbEntity
  8
Dimension
 62
256
370
-1
  6
ByLayer
100
AcDbDimension
 10
18.5000000000000036
 20
13.5
 30
0.0
 11
18.25
 21
13.6999999999999993
 31
0.0
 70
0
 71
5
 72
0
 41
1.0
 42
0.0
  1

  3
Standard
100
AcDbAlignedDimension
 13
18.0
 23
13.0
 33
0.0
 14
18.5000000000000036
 24
13.0
 34
0.0
 50
0.0
100
AcDbRotatedDimension
  0
DIMENSION
  5
1F4
100
AcDbEntity
  8
Dimension
 62
256
370
-1
  6
ByLayer
100
AcDbDimension
 10
14.5000000000000018
 20
10.5000000000000018
 30
0.0
 11
13.620228915167429
 21
11.3222889323665505
 31
0.0
 70
4
 71
5
 72
0
 41
1.0
 42
0.0
  1

  3
Standard
100
AcDbRadialDimension
 15
12.5196502062684818
 25
11.8110452678941051
 35
0.0
 40
0.0
  0
LINE
  5
1F5
100
AcDbEntity
100
AcDbLine
  8
1
 62
256
370
-1
  6
ByLayer
 10
14.5000000000000018
 20
10.5000000000000018
 30
0.0
 11
15.8206165983934319
 21
12.4739799391198929
 31
0.0
  0
LEADER
  5
1F6
  8
Dimension
 62
256
370
-1
  6
ByLayer
100
AcDbEntity
100
AcDbLeader
  3
Standard
 71
1
 72
0
 73
3
 74
0
 75
0
 40
1.0
 41
10.0
 76
2
 10
12.5244999359274019
 20
9.1816584293707653
 10
12.9403946862584753
 20
9.4592040231874481
  0
LEADER
  5
1F7
  8
Dimension
 62
256
370
-1
  6
ByLayer
100
AcDbEntity
100
AcDbLeader
  3
Standard
 71
1
 72
0
 73
3
 74
0
 75
0
 40
1.0
 41
10.0
 76
2
 10
12.4205262483446361
 20
9.1122720309165963
 10
12.1086051855963284
 20
8.9041128355540842
  0
MTEXT
  5
1F8
100
AcDbEntity
100
AcDbMText
  8
Dimension
 62
256
370
-1
  6
ByLayer
 10
11.1999999999999975
 20
8.8000000000000025
 30
0.0
 40
0.2
 41
100.0
 71
1
 72
2
  1
0.125\S+.025\-.003
  7
normallatin1
 50
0.0
 73
0
 44
1.0
  0
DIMENSION
  5
1F9
100
AcDbEntity
  8
Dimension
 62
256
370
-1
  6
ByLayer
100
AcDbDimension
 10
16.6695944084089795
 20
12.7304055915910226
 30
0.0
 11
16.8414213562373121
 21
12.8414213562373085
 31
0.0
 70
1
 71
5
 72
0
 41
1.0
 42
0.0
  1

  3
Standard
100
AcDbAlignedDimension
 13
16.2979110371271929
 23
12.2370998539451428
 33
0.0
 14
16.2370998539451463
 24
12.2979110371271894
 34
0.0
  0
LINE
  5
1FA
100
AcDbEntity
100
AcDbLine
  8
Dimension
 62
256
370
-1
  6
CENTER
 10
15.9142135623730976
 20
11.9142135623730958
 30
0.0
 11
16.7500000000000036
 21
12.75
 31
0.0
  0
DIMENSION
  5
1FB
100
AcDbEntity
  8
Dimension
 62
256
370
-1
  6
ByLayer
100
AcDbDimension
 10
20.0
 20
14.5
 30
0.0
 11
19.0
 21
14.6999999999999993
 31
0.0
 70
0
 71
5
 72
0
 41
1.0
 42
0.0
  1
2\S+.01^\~-.01;
  3
Standard
100
AcDbAlignedDimension
 13
18.0
 23
13.0
 33
0.0
 14
20.0
 24
13.0
 34
0.0
 50
0.0
100
AcDbRotatedDimension
  0
DIMENSION
  5
1FC
100
AcDbEntity
  8
Dimension
 62
256
370
-1
  6
ByLayer
100
AcDbDimension
 10
19.5
 20
14.0
 30
0.0
 11
19.0
 21
14.1999999999999993
 31
0.0
 70
0
 71
5
 72
0
 41
1.0
 42
0.0
  1
1\S+.005^\~-.005;
  3
Standard
100
AcDbAlignedDimension
 13
18.5000000000000036
 23
13.0
 33
0.0
 14
19.5
 24
13.0
 34
0.0
 50
0.0
100
AcDbRotatedDimension
  0
DIMENSION
  5
1FD
100
AcDbEntity
  8
Dimension
 62
256
370
-1
  6
ByLayer
100
AcDbDimension
 10
21.0
 20
13.0
 30
0.0
 11
20.8000000000000007
 21
10.5
 31
0.0
 70
0
 71
5
 72
0
 41
1.0
 42
0.0
  1
5\S+.002^\~-.005;
  3
Standard
100
AcDbAlignedDimension
 13
20.0
 23
8.0
 33
0.0
 14
20.0
 24
13.0
 34
0.0
 50
90.0
100
AcDbRotatedDimension
  0
DIMENSION
  5
1FE
100
AcDbEntity
  8
Dimension
 62
256
370
-1
  6
ByLayer
100
AcDbDimension
 10
20.5
 20
12.875
 30
0.0
 11
20.3000000000000007
 21
10.5
 31
0.0
 70
0
 71
5
 72
0
 41
1.0
 42
0.0
  1
4.75\S+.025^\~-.003;
  3
Standard
100
AcDbAlignedDimension
 13
20.0
 23
8.125
 33
0.0
 14
20.0
 24
12.875
 34
0.0
 50
90.0
100
AcDbRotatedDimension
  0
LINE
  5
1FF
100
AcDbEntity
100
AcDbLine
  8
Section
 62
256
370
-1
  6
ByLayer
 10
10.0
 20
7.7000000000000002
 30
0.0
 11
10.5
 21
7.7000000000000002
 31
0.0
  0
LINE
  5
200
100
AcDbEntity
100
AcDbLine
  8
Section
 62
256
370
-1
  6
ByLayer
 10
10.5
 20
7.7000000000000002
 30
0.0
 11
10.3000000000000007
 21
7.8000000000000016
 31
0.0
  0
LINE
  5
201
100
AcDbEntity
100
AcDbLine
  8
Section
 62
256
370
-1
  6
ByLayer
 10
10.3000000000000007
 20
7.8000000000000016
 30
0.0
 11
10.3000000000000007
 21
7.6000000000000005
 31
0.0
  0
LINE
  5
202
100
AcDbEntity
100
AcDbLine
  8
Section
 62
256
370
-1
  6
ByLayer
 10
10.3000000000000007
 20
7.6000000000000005
 30
0.0
 11
10.5
 21
7.7000000000000002
 31
0.0
  0
MTEXT
  5
203
100
AcDbEntity
100
AcDbMText
  8
Section
 62
256
370
-1
  6
ByLayer
 10
10.7000000000000011
 20
7.9000000000000012
 30
0.0
 40
0.5
 41
100.0
 71
1
 72
2
  1
B
  7
normallatin1
 50
0.0
 73
0
 44
1.0
  0
LINE
  5
204
100
AcDbEntity
100
AcDbLine
  8
Section
 62
256
370
-1
  6
ByLayer
 10
10.0
 20
1.6000000000000001
 30
0.0
 11
10.5
 21
1.6000000000000001
 31
0.0
  0
LINE
  5
205
100
AcDbEntity
100
AcDbLine
  8
Section
 62
256
370
-1
  6
ByLayer
 10
10.5
 20
1.5999999999999999
 30
0.0
 11
10.2999999999999989
 21
1.7000000000000013
 31
0.0
  0
LINE
  5
206
100
AcDbEntity
100
AcDbLine
  8
Section
 62
256
370
-1
  6
ByLayer
 10
10.2999999999999989
 20
1.7000000000000013
 30
0.0
 11
10.2999999999999989
 21
1.5000000000000002
 31
0.0
  0
LINE
  5
207
100
AcDbEntity
100
AcDbLine
  8
Section
 62
256
370
-1
  6
ByLayer
 10
10.2999999999999989
 20
1.5000000000000002
 30
0.0
 11
10.5
 21
1.5999999999999999
 31
0.0
  0
MTEXT
  5
208
100
AcDbEntity
100
AcDbMText
  8
Section
 62
256
370
-1
  6
ByLayer
 10
10.7000000000000011
 20
1.8
 30
0.0
 40
0.5
 41
100.0
 71
1
 72
2
  1
B
  7
normallatin1
 50
0.0
 73
0
 44
1.0
  0
LINE
  5
209
100
AcDbEntity
100
AcDbLine
  8
Dimension
 62
256
370
-1
  6
CENTER
 10
10.0
 20
1.663499999999998
 30
0.0
 11
10.0
 21
7.7000000000000002
 31
0.0
  0
LINE
  5
20A
100
AcDbEntity
100
AcDbLine
  8
Section
 62
256
370
-1
  6
DIVIDE2
 10
10.0
 20
1.6000000000000001
 30
0.0
 11
10.0
 21
7.7000000000000002
 31
0.0
  0
DIMENSION
  5
20B
100
AcDbEntity
  8
Dimension
 62
256
370
-1
  6
ByLayer
100
AcDbDimension
 10
18.5000000000000036
 20
0.9999999999999996
 30
0.0
 11
10.0
 21
1.1999999999999995
 31
0.0
 70
0
 71
5
 72
0
 41
1.0
 42
0.0
  1
17\S+.005^\~-.005;
  3
Standard
100
AcDbAlignedDimension
 13
1.5000000000000004
 23
2.0
 33
0.0
 14
18.5000000000000036
 24
2.0
 34
0.0
 50
0.0
100
AcDbRotatedDimension
  0
LINE
  5
20C
100
AcDbEntity
100
AcDbLine
  8
Section
 62
256
370
-1
  6
ByLayer
 10
1.5000000000000004
 20
7.7000000000000002
 30
0.0
 11
2.0000000000000004
 21
7.7000000000000002
 31
0.0
  0
LINE
  5
20D
100
AcDbEntity
100
AcDbLine
  8
Section
 62
256
370
-1
  6
ByLayer
 10
2.0000000000000004
 20
7.7000000000000002
 30
0.0
 11
1.8
 21
7.8000000000000016
 31
0.0
  0
LINE
  5
20E
100
AcDbEntity
100
AcDbLine
  8
Section
 62
256
370
-1
  6
ByLayer
 10
1.8
 20
7.8000000000000016
 30
0.0
 11
1.8
 21
7.6000000000000005
 31
0.0
  0
LINE
  5
20F
100
AcDbEntity
100
AcDbLine
  8
Section
 62
256
370
-1
  6
ByLayer
 10
1.8
 20
7.6000000000000005
 30
0.0
 11
2.0
 21
7.7000000000000002
 31
0.0
  0
MTEXT
  5
210
100
AcDbEntity
100
AcDbMText
  8
Section
 62
256
370
-1
  6
ByLayer
 10
2.1000000000000001
 20
7.9000000000000012
 30
0.0
 40
0.5
 41
100.0
 71
1
 72
2
  1
A
  7
normallatin1
 50
0.0
 73
0
 44
1.0
  0
LINE
  5
211
100
AcDbEntity
100
AcDbLine
  8
Section
 62
256
370
-1
  6
ByLayer
 10
1.5000000000000004
 20
1.6000000000000001
 30
0.0
 11
2.0
 21
1.6000000000000001
 31
0.0
  0
LINE
  5
212
100
AcDbEntity
100
AcDbLine
  8
Section
 62
256
370
-1
  6
ByLayer
 10
2.0
 20
1.5999999999999999
 30
0.0
 11
1.7999999999999996
 21
1.7000000000000013
 31
0.0
  0
LINE
  5
213
100
AcDbEntity
100
AcDbLine
  8
Section
 62
256
370
-1
  6
ByLayer
 10
1.7999999999999996
 20
1.7000000000000013
 30
0.0
 11
1.7999999999999996
 21
1.5000000000000002
 31
0.0
  0
LINE
  5
214
100
AcDbEntity
100
AcDbLine
  8
Section
 62
256
370
-1
  6
ByLayer
 10
1.7999999999999996
 20
1.5000000000000002
 30
0.0
 11
1.9999999999999996
 21
1.5999999999999999
 31
0.0
  0
MTEXT
  5
215
100
AcDbEntity
100
AcDbMText
  8
Section
 62
256
370
-1
  6
ByLayer
 10
2.1000000000000001
 20
1.8
 30
0.0
 40
0.5
 41
100.0
 71
1
 72
2
  1
A
  7
normallatin1
 50
0.0
 73
0
 44
1.0
  0
LINE
  5
216
100
AcDbEntity
100
AcDbLine
  8
Section
 62
256
370
-1
  6
DIVIDE2
 10
1.5000000000000004
 20
1.6000000000000001
 30
0.0
 11
1.5000000000000004
 21
7.7000000000000002
 31
0.0
  0
LEADER
  5
217
  8
Dimension
 62
256
370
-1
  6
ByLayer
100
AcDbEntity
100
AcDbLeader
  3
Standard
 71
1
 72
0
 73
3
 74
0
 75
0
 40
1.0
 41
10.0
 76
3
 10
16.8207106781186582
 20
12.8207106781186546
 10
17.1035533905932766
 20
13.1035533905932731
 10
17.1035533905932766
 20
14.2000000000000011
  0
MTEXT
  5
218
100
AcDbEntity
100
AcDbMText
  8
Dimension
 62
256
370
-1
  6
ByLayer
 10
5.0
 20
8.3000000000000007
 30
0.0
 40
0.2
 41
100.0
 71
1
 72
0
  1
All\~material\PAluminum\~6061-T6
  7
normallatin1
 50
0.0
 73
1
 44
1.0
  0
MTEXT
  5
219
100
AcDbEntity
100
AcDbMText
  8
Dimension
 62
256
370
-1
  6
ByLayer
 10
17.1999999999999993
 20
16.2000000000000028
 30
0.0
 40
0.3
 41
100.0
 71
1
 72
0
  1
PSAS\~LV2c\~Module\Pv1.0\~2006.10.03
  7
normallatin1
 50
0.0
 73
1
 44
1.0
  0
MTEXT
  5
21A
100
AcDbEntity
100
AcDbMText
  8
Dimension
 62
256
370
-1
  6
ByLayer
 10
16.0
 20
15.1999999999999993
 30
0.0
 40
0.2
 41
100.0
 71
1
 72
2
  1
Drill\~#44\PTap\~#4-40\P16\~places
  7
normallatin1
 50
0.0
 73
0
 44
1.0
  0
MTEXT
  5
21B
100
AcDbEntity
100
AcDbMText
  8
Dimension
 62
256
370
-1
  6
ByLayer
 10
19.1999999999999993
 20
1.8
 30
0.0
 40
0.2
 41
100.0
 71
1
 72
0
  1
\U+00a9\~2006\~PSAS\Ppsas.pdx.edu\PGPL\~v.2
  7
normallatin1
 50
0.0
 73
1
 44
1.0
  0
LINE
  5
21C
100
AcDbEntity
100
AcDbLine
  8
1
 62
256
370
-1
  6
ByLayer
 10
6.3000000000000007
 20
10.9000000000000004
 30
0.0
 11
6.3000000000000007
 21
15.9000000000000004
 31
0.0
  0
LINE
  5
21D
100
AcDbEntity
100
AcDbLine
  8
1
 62
256
370
-1
  6
ByLayer
 10
6.8000000000000007
 20
10.9000000000000004
 30
0.0
 11
6.8000000000000007
 21
15.9000000000000004
 31
0.0
  0
LINE
  5
21E
100
AcDbEntity
100
AcDbLine
  8
Dimension
 62
256
370
-1
  6
CENTER
 10
0.8750000000000018
 20
13.5
 30
0.0
 11
6.3000000000000007
 21
13.5
 31
0.0
  0
LINE
  5
21F
100
AcDbEntity
100
AcDbLine
  8
Dimension
 62
256
370
-1
  6
CENTER
 10
6.8000000000000007
 20
13.5
 30
0.0
 11
12.6250000000000018
 21
13.5
 31
0.0
  0
LINE
  5
220
100
AcDbEntity
100
AcDbLine
  8
1
 62
256
370
-1
  6
ByLayer
 10
5.1000000000000005
 20
2.0
 30
0.0
 11
5.1000000000000005
 21
7.0
 31
0.0
  0
LINE
  5
221
100
AcDbEntity
100
AcDbLine
  8
1
 62
256
370
-1
  6
ByLayer
 10
9.3000000000000007
 20
2.0
 30
0.0
 11
9.3000000000000007
 21
7.0
 31
0.0
  0
LINE
  5
222
100
AcDbEntity
100
AcDbLine
  8
Dimension
 62
256
370
-1
  6
CENTER
 10
0.515625
 20
4.625
 30
0.0
 11
5.1000000000000005
 21
4.625
 31
0.0
  0
LINE
  5
223
100
AcDbEntity
100
AcDbLine
  8
Dimension
 62
256
370
-1
  6
CENTER
 10
9.3000000000000007
 20
4.625
 30
0.0
 11
19.484375
 21
4.625
 31
0.0
  0
LINE
  5
224
100
AcDbEntity
100
AcDbLine
  8
1
 62
256
370
-1
  6
ByLayer
 10
7.8000000000000007
 20
2.0
 30
0.0
 11
7.8000000000000007
 21
7.0
 31
0.0
  0
LINE
  5
225
100
AcDbEntity
100
AcDbLine
  8
1
 62
256
370
-1
  6
ByLayer
 10
8.6000000000000014
 20
2.0
 30
0.0
 11
8.6000000000000014
 21
7.0
 31
0.0
  0
LINE
  5
226
100
AcDbEntity
100
AcDbLine
  8
Dimension
 62
256
370
-1
  6
CENTER
 10
7.8000000000000007
 20
4.625
 30
0.0
 11
8.6000000000000014
 21
4.625
 31
0.0
  0
LINE
  5
227
100
AcDbEntity
100
AcDbLine
  8
1
 62
256
370
-1
  6
ByLayer
 10
12.3000000000000007
 20
8.8000000000000007
 30
0.0
 11
17.3000000000000007
 21
8.8000000000000007
 31
0.0
  0
LINE
  5
228
100
AcDbEntity
100
AcDbLine
  8
1
 62
256
370
-1
  6
ByLayer
 10
12.3000000000000007
 20
9.6000000000000014
 30
0.0
 11
17.3000000000000007
 21
9.6000000000000014
 31
0.0
  0
LINE
  5
229
100
AcDbEntity
100
AcDbLine
  8
Dimension
 62
256
370
-1
  6
CENTER
 10
14.5000000000000018
 20
9.6000000000000014
 30
0.0
 11
14.5000000000000018
 21
13.5
 31
0.0
  0
LINE
  5
22A
100
AcDbEntity
100
AcDbLine
  8
Dimension
 62
256
370
-1
  6
CENTER
 10
14.5000000000000018
 20
7.5
 30
0.0
 11
14.5000000000000018
 21
8.8000000000000007
 31
0.0
  0
LINE
  5
22B
100
AcDbEntity
100
AcDbLine
  8
Module
 62
256
370
-1
  6
DOT2
 10
18.984375
 20
7.125
 30
0.0
 11
17.5223457679283605
 21
7.125
 31
0.0
  0
LINE
  5
22C
100
AcDbEntity
100
AcDbLine
  8
Module
 62
256
370
-1
  6
DOT2
 10
2.477654232071635
 20
7.1250000000000009
 30
0.0
 11
1.015625
 21
7.125
 31
0.0
  0
LINE
  5
22D
100
AcDbEntity
100
AcDbLine
  8
Module
 62
256
370
-1
  6
DOT2
 10
1.015625
 20
2.125
 30
0.0
 11
2.4776542320716395
 21
2.125
 31
0.0
  0
LINE
  5
22E
100
AcDbEntity
100
AcDbLine
  8
Module
 62
256
370
-1
  6
DOT2
 10
17.522345767928357
 20
2.1250000000000004
 30
0.0
 11
18.984375
 21
2.125
 31
0.0
  0
LINE
  5
22F
100
AcDbEntity
100
AcDbLine
  8
1
 62
256
370
-1
  6
ByLayer
 10
20.1000000000000014
 20
7.8000000000000007
 30
0.0
 11
20.1000000000000014
 21
12.8000000000000007
 31
0.0
  0
LINE
  5
230
100
AcDbEntity
100
AcDbLine
  8
Dimension
 62
256
370
-1
  6
CENTER
 10
11.3750000000000018
 20
10.5000000000000018
 30
0.0
 11
20.1000000000000014
 21
10.5000000000000018
 31
0.0
  0
LINE
  5
231
100
AcDbEntity
100
AcDbLine
  8
Coupler
 62
256
370
-1
  6
DOT2
 10
20.0
 20
12.875
 30
0.0
 11
18.0
 21
12.875
 31
0.0
  0
LINE
  5
232
100
AcDbEntity
100
AcDbLine
  8
Coupler
 62
256
370
-1
  6
DOT2
 10
18.0
 20
8.125
 30
0.0
 11
20.0
 21
8.125
 31
0.0
  0
DIMENSION
  5
233
100
AcDbEntity
  8
Dimension
 62
256
370
-1
  6
ByLayer
100
AcDbDimension
 10
14.5000000000000018
 20
7.5
 30
0.0
 11
0.0
 21
0.0
 31
0.0
 70
2
 71
5
 72
0
 41
1.0
 42
0.0
  1
22.5\S+0.1^\~-0.1;
  3
Standard
100
AcDb2LineAngularDimension
 13
15.2653668647301828
 23
12.3477590650225739
 33
0.0
 14
15.6002148680496369
 24
13.1561536559699501
 34
0.0
 15
14.5000000000000018
 25
13.5
 35
0.0
 16
15.2000000000000011
 26
14.1000000000000014
 36
0.0
  0
DIMENSION
  5
234
100
AcDbEntity
  8
Dimension
 62
256
370
-1
  6
ByLayer
100
AcDbDimension
 10
2.9391153242036303
 20
10.6802423188407118
 30
0.0
 11
0.0
 21
0.0
 31
0.0
 70
2
 71
5
 72
0
 41
1.0
 42
0.0
  1
22.5%%d\S+0.1^\~-0.1;
  3
Standard
100
AcDb2LineAngularDimension
 13
2.2499669757058953
 23
11.6291933723192749
 33
0.0
 14
1.9027355800686425
 24
11.1095248646301812
 34
0.0
 15
3.0610467754637112
 25
11.2932331190927329
 35
0.0
 16
2.0
 26
10.0
 36
0.0
  0
MTEXT
  5
235
100
AcDbEntity
100
AcDbMText
  8
Dimension
 62
256
370
-1
  6
ByLayer
 10
3.5
 20
9.5
 30
0.0
 40
0.2
 41
100.0
 71
1
 72
2
  1
11.25%%d\S+0.1\-0.1
  7
normallatin1
 50
0.0
 73
0
 44
1.0
  0
ENDSEC
  0
SECTION
  2
OBJECTS
  0
DICTIONARY
  5
C
100
AcDbDictionary
280
0
281
1
  3
ACAD_GROUP
350
D
  3
ACAD_LAYOUT
350
1A
  3
ACAD_MLINESTYLE
350
17
  3
ACAD_PLOTSETTINGS
350
19
  3
ACAD_PLOTSTYLENAME
350
E
  3
AcDbVariableDictionary
350
236
  0
DICTIONARY
  5
D
100
AcDbDictionary
280
0
281
1
  0
ACDBDICTIONARYWDFLT
  5
E
100
AcDbDictionary
281
1
  3
Normal
350
F
100
AcDbDictionaryWithDefault
340
F
  0
ACDBPLACEHOLDER
  5
F
  0
DICTIONARY
  5
17
100
AcDbDictionary
280
0
281
1
  3
Standard
350
18
  0
MLINESTYLE
  5
18
100
AcDbMlineStyle
  2
STANDARD
 70
0
  3

 62
256
 51
90.0
 52
90.0
 71
2
 49
0.5
 62
256
  6
BYLAYER
 49
-0.5
 62
256
  6
BYLAYER
  0
DICTIONARY
  5
19
100
AcDbDictionary
280
0
281
1
  0
DICTIONARY
  5
1A
100
AcDbDictionary
281
1
  3
Layout1
350
1E
  3
Layout2
350
26
  3
Model
350
22
  0
LAYOUT
  5
1E
100
AcDbPlotSettings
  1

  2
C:\Program Files\AutoCAD 2002\plotters\DWF ePlot (optimized for plotting).pc3
  4

  6

 40
0.0
 41
0.0
 42
0.0
 43
0.0
 44
0.0
 45
0.0
 46
0.0
 47
0.0
 48
0.0
 49
0.0
140
0.0
141
0.0
142
1.0
143
1.0
 70
688
 72
0
 73
0
 74
5
  7

 75
16
147
1.0
148
0.0
149
0.0
100
AcDbLayout
  1
Layout1
 70
1
 71
1
 10
0.0
 20
0.0
 11
420.0
 21
297.0
 12
0.0
 22
0.0
 32
0.0
 14
100000000000000000000.0
 24
100000000000000000000.0
 34
100000000000000000000.0
 15
-100000000000000000000.0
 25
-100000000000000000000.0
 35
-100000000000000000000.0
146
0.0
 13
0.0
 23
0.0
 33
0.0
 16
1.0
 26
0.0
 36
0.0
 17
0.0
 27
1.0
 37
0.0
 76
0
330
1B
  0
LAYOUT
  5
22
100
AcDbPlotSettings
  1

  2
C:\Program Files\AutoCAD 2002\plotters\DWF ePlot (optimized for plotting).pc3
  4

  6

 40
0.0
 41
0.0
 42
0.0
 43
0.0
 44
0.0
 45
0.0
 46
0.0
 47
0.0
 48
0.0
 49
0.0
140
0.0
141
0.0
142
1.0
143
1.0
 70
1712
 72
0
 73
0
 74
0
  7

 75
0
147
1.0
148
0.0
149
0.0
100
AcDbLayout
  1
Model
 70
1
 71
0
 10
0.0
 20
0.0
 11
12.0
 21
9.0
 12
0.0
 22
0.0
 32
0.0
 14
0.0
 24
0.0
 34
0.0
 15
0.0
 25
0.0
 35
0.0
146
0.0
 13
0.0
 23
0.0
 33
0.0
 16
1.0
 26
0.0
 36
0.0
 17
0.0
 27
1.0
 37
0.0
 76
0
330
1F
  0
LAYOUT
  5
26
100
AcDbPlotSettings
  1

  2
C:\Program Files\AutoCAD 2002\plotters\DWF ePlot (optimized for plotting).pc3
  4

  6

 40
0.0
 41
0.0
 42
0.0
 43
0.0
 44
0.0
 45
0.0
 46
0.0
 47
0.0
 48
0.0
 49
0.0
140
0.0
141
0.0
142
1.0
143
1.0
 70
688
 72
0
 73
0
 74
5
  7

 75
16
147
1.0
148
0.0
149
0.0
100
AcDbLayout
  1
Layout2
 70
1
 71
2
 10
0.0
 20
0.0
 11
12.0
 21
9.0
 12
0.0
 22
0.0
 32
0.0
 14
0.0
 24
0.0
 34
0.0
 15
0.0
 25
0.0
 35
0.0
146
0.0
 13
0.0
 23
0.0
 33
0.0
 16
1.0
 26
0.0
 36
0.0
 17
0.0
 27
1.0
 37
0.0
 76
0
330
23
  0
DICTIONARY
  5
236
100
AcDbDictionary
281
1
  3
DIMASSOC
350
238
  3
HIDETEXT
350
237
  0
DICTIONARYVAR
  5
237
100
DictionaryVariables
280
0
  1
2
  0
DICTIONARYVAR
  5
238
100
DictionaryVariables
280
0
  1
1
  0
ENDSEC
  0
EOF
